На всех торрентах на трекере установлена скидка на скачивание в размере 100 процентов(а).
 Возможность скачивания торрента НЕ зависит от ограничений при низком ратио, низком аплоаде, требуемом ратио или требуемом аплоаде.


Начать новую тему Ответить на тему
Статистика раздачи
Размер: 1.86 ГБ | Добавлен: 15 ноя 2015, 23:58 | Скачали: 183
Сидеров: 34  [0 байт/сек]    Личеров: 2  [0 байт/сек]
Пред. тема | След. тема 

Автор
Сообщение

СообщениеДобавлено: 15 ноя 2015, 23:58 

Ответить с цитатой 

Название: Под песком
Оригинальное название: Sous le sable
Год выхода: 2000
Жанр: драма, детектив
Режиссер: Франсуа Озон
В ролях:
Шарлотта Рэмплинг — Мари Дрийон
Бруно Кремер — Жак Дрийон
Жак Ноло — Венсан
Александра Стюарт — Аманда
Пьер Вернье — Жерар
Анлре Тайнси — Сюзанна

О фильме:
Многие годы супруги Мари и Жан проводят свой отпуск в приморской области Ланды, на западе Франции. В один из дней муж Мари неожиданно исчез. Что это: странная глупая и нелепая смерть или спланированный сумаcшедший поступок? А, может, это страшный рок?…

Страна: Франция, Япония
Студия: Fidélité Productions, Euro Space, Haut et Court
Продолжительность: 01:32:11.000
Перевод: Профессиональный (многоголосый, закадровый) R5


Кодек: h.264
Качество: DVDRip-AVC
Видео: 696x544 (16:9) @ 984x544 (анаморф), 25.000 fps, AVC, ~2047 Kbps, 0.216 bits/pixel
Звук:
Русский, 48.0 KHz, AC3, 6 ch, 384 Kbps
Французский, 48.0 KHz, AC3, 6 ch, 448 Kbps
Субтитры: Английские, VobSub

General
Unique ID : 235320696331181850288794542257057384171 (0xB1091E1866A003E0A147A4E36BB146EB)
Complete name : I:FilmsPod_peskom.2000.DVDRip-AVC.mkv
Format : Matroska
Format version : Version 4 / Version 2
File size : 1.86 GiB
Duration : 1h 32mn
Overall bit rate : 2 881 Kbps
Encoded date : UTC 2015-11-09 17:37:35
Writing application : mkvmerge v8.5.2 ('Crosses') 64bit
Writing library : libebml v1.3.3 + libmatroska v1.4.4
DURATION : 01:32:10.944000000
NUMBER_OF_FRAMES : 172842
NUMBER_OF_BYTES : 309732864
_STATISTICS_WRITING_APP : mkvmerge v8.5.2 ('Crosses') 64bit
_STATISTICS_WRITING_DATE_UTC : 2015-11-09 17:37:35
_STATISTICS_TAGS : BPS DURATION NUMBER_OF_FRAMES NUMBER_OF_BYTES

Video
ID : 1
Format : AVC
Format/Info : Advanced Video Codec
Format profile : High@L4.1
Format settings, CABAC : Yes
Format settings, ReFrames : 11 frames
Codec ID : V_MPEG4/ISO/AVC
Duration : 1h 32mn
Bit rate : 2 047 Kbps
Width : 696 pixels
Height : 544 pixels
Display aspect ratio : 16:9
Frame rate mode : Constant
Frame rate : 25.000 fps
Color space : YUV
Chroma subsampling : 4:2:0
Bit depth : 8 bits
Scan type : Progressive
Bits/(Pixel*Frame) : 0.216
Stream size : 1.28 GiB (69%)
Writing library : x264 core 146 r2538 121396c
Encoding settings : cabac=1 / ref=11 / deblock=1:0:0 / analyse=0x3:0x133 / me=umh / subme=11 / psy=1 / psy_rd=1.10:0.15 / mixed_ref=1 / me_range=48 / chroma_me=1 / trellis=2 / 8x8dct=1 / cqm=0 / deadzone=21,11 / fast_pskip=0 / chroma_qp_offset=-3 / threads=8 / lookahead_threads=2 / sliced_threads=0 / nr=0 / decimate=0 / interlaced=0 / bluray_compat=0 / constrained_intra=0 / bframes=10 / b_pyramid=2 / b_adapt=2 / b_bias=0 / direct=3 / weightb=1 / open_gop=0 / weightp=2 / keyint=250 / keyint_min=25 / scenecut=40 / intra_refresh=0 / rc_lookahead=60 / rc=2pass / mbtree=0 / bitrate=2047 / ratetol=1.0 / qcomp=0.60 / qpmin=0 / qpmax=69 / qpstep=4 / cplxblur=20.0 / qblur=0.5 / vbv_maxrate=40000 / vbv_bufsize=50000 / nal_hrd=none / filler=0 / ip_ratio=1.40 / pb_ratio=1.30 / aq=1:1.00
Default : No
Forced : No
Color range : Limited
Matrix coefficients : BT.601

Audio #1
ID : 2
Format : AC-3
Format/Info : Audio Coding 3
Mode extension : CM (complete main)
Format settings, Endianness : Big
Codec ID : A_AC3
Duration : 1h 32mn
Bit rate mode : Constant
Bit rate : 384 Kbps
Channel(s) : 6 channels
Channel positions : Front: L C R, Side: L R, LFE
Sampling rate : 48.0 KHz
Compression mode : Lossy
Stream size : 253 MiB (13%)
Language : Russian
Default : Yes
Forced : No

Audio #2
ID : 3
Format : AC-3
Format/Info : Audio Coding 3
Mode extension : CM (complete main)
Format settings, Endianness : Big
Codec ID : A_AC3
Duration : 1h 32mn
Bit rate mode : Constant
Bit rate : 448 Kbps
Channel(s) : 6 channels
Channel positions : Front: L C R, Side: L R, LFE
Sampling rate : 48.0 KHz
Compression mode : Lossy
Stream size : 295 MiB (16%)
Language : French
Default : No
Forced : No

Text
ID : 4
Format : VobSub
Muxing mode : zlib
Codec ID : S_VOBSUB
Codec ID/Info : Picture based subtitle format used on DVDs
Language : English
Default : No
Forced : No

Menu
00:00:00.000 : en:Chapter 01
00:08:27.000 : en:Chapter 02
00:12:42.840 : en:Chapter 03
00:19:38.840 : en:Chapter 04
00:23:58.840 : en:Chapter 05
00:28:10.000 : en:Chapter 06
00:33:45.920 : en:Chapter 07
00:42:04.080 : en:Chapter 08
00:50:07.160 : en:Chapter 09
00:58:18.040 : en:Chapter 10
01:03:11.840 : en:Chapter 11
01:07:18.840 : en:Chapter 12
01:12:55.800 : en:Chapter 13
01:16:33.680 : en:Chapter 14
01:19:34.120 : en:Chapter 15
01:24:37.800 : en:Chapter 16


Исходник R5





Релиз от: Temperest
загрузка...
Правила, инструкции, FAQ!!!
Торрент  Добавлен [15 ноя 2015, 23:58] Скачать торрент Магнет ссылка
Скачать торрент
[ Размер 19.21 КБ / Просмотров 5 ]

Статус
Проверен 
 
Размер  1.86 ГБ
Приватный: Нет (DHT включён)
.torrent скачан  183
Как залить торрент? | Как скачать Torrent? | Как смотреть и слушать онлайн?  


     Отправить личное сообщение
   
Страница 1 из 1
Показать сообщения за:  Поле сортировки  
Начать новую тему Ответить на тему

   Похожие торренты   Автор   Ответы   Просмотры   Последнее сообщение 
В этой теме нет новых непрочитанных сообщений. Скачать торрент Проверен (Pop) Gerald de Palmas - Marcher dans le sable - 2001, FLAC (image+.cue) lossless

в форуме Зарубежная музыка, Размер: 276.7 МБ, Здоровье: 100%

Anonymous

0
28|3

21
1

12 авг 2016, 17:45

Anonymous Перейти к последнему сообщению

В этой теме нет новых непрочитанных сообщений. Скачать торрент Проверен [Адаптированная аудиокнига] Gilles Massardier - Les danseurs de sable (Niveau B1) / Танцоры песка (Уровень B1) [2008, PDF, MP3, FRA]

в форуме Французский язык, Размер: 78.94 МБ, Здоровье: 100%

Anonymous

0
10|1

10
0

01 мар 2017, 21:13

Anonymous Перейти к последнему сообщению

В этой теме нет новых непрочитанных сообщений. Скачать торрент Проверен Тяжёлый металл 2000 / Heavy Metal 2000 (2000) DVDRip-AVC | P

в форуме Зарубежные мультфильмы, Размер: 2.08 ГБ, Здоровье: 100%

Гость

0
137|69

733
96

04 окт 2015, 23:24

Гость Перейти к последнему сообщению

В этой теме нет новых непрочитанных сообщений. Скачать торрент Проверен (Hardcore/Rapcore) Чеsночный Sous - Знакомые Насекомые - 2014, MP3, 320 kbps

в форуме Русский Рок, Размер: 79.8 МБ, Здоровье: 0%

Anonymous

0
0|0

5
0

22 авг 2016, 01:30

Anonymous Перейти к последнему сообщению

В этой теме нет новых непрочитанных сообщений. Скачать торрент Проверен (Pop) [CD] Florent Mothe - Danser sous la pluie - 2016, mp3 (tracks), 320 kbps

в форуме Зарубежная музыка, Размер: 91.46 МБ, Здоровье: 0%

Anonymous

0
0|0

7
0

25 июн 2017, 11:49

Anonymous Перейти к последнему сообщению



Сейчас этот форум просматривают: нет зарегистрированных пользователей и гости: 0


Вы не можете начинать темы
Вы не можете отвечать на сообщения
Вы не можете редактировать свои сообщения
Вы не можете удалять свои сообщения
Вы не можете добавлять вложения


!ВНИМАНИЕ!
 Ресурс не предоставляет электронные версии произведений, а занимается лишь коллекционированием и каталогизацией ссылок, присылаемых и публикуемых на форуме нашими читателями. Если вы являетесь правообладателем какого-либо представленного материала и не желаете чтобы ссылка на него находилась в нашем каталоге, свяжитесь с нами и мы незамедлительно удалим её. Файлы для обмена на трекере предоставлены пользователями сайта, и администрация не несёт ответственности за их содержание. Просьба не заливать файлы, защищенные авторскими правами, а также файлы нелегального содержания!