На всех торрентах на трекере установлена скидка на скачивание в размере 100 процентов(а).
 Возможность скачивания торрента НЕ зависит от ограничений при низком ратио, низком аплоаде, требуемом ратио или требуемом аплоаде.


Начать новую тему Ответить на тему
Статистика раздачи
Размер: 1.42 ГБ | Добавлен: 21 окт 2014, 20:55 | Скачали: 6
Сидеров: 59  [0 байт/сек]    Личеров: 5  [0 байт/сек]
Пред. тема | След. тема 

Автор
Сообщение

СообщениеДобавлено: 21 окт 2014, 20:55 

Ответить с цитатой 

Жанр: Социальная драма
Год выпуска: 1989
Продолжительность: 01:24:02

Режиссёр: Виталий Дудин

В ролях: Игорь Фурманюк, Анна Яновская, Нина Усатова, Юозас Будрайтис, Борис Лагода, Георгий Волчек, Елена Внукова, Михаил Мелешко, Владимир Шелестов, Галина Кухальская, Александр Суцковер, Виктор Мережко, Юрий Черкасов, Виктор Молчан, Лидия Вележева

Описание: Милая интеллигентная девочка Лена из обеспеченного номенклатурного семейства и ее приятель Алексей – сын директора крупного завода в Минске – постепенно опускаются на самое дно жизни, когда из-за дозы героина человек готов на все. Отец Алексея не способен помочь сыну в его беде. Распродавая последнее имущество и снабжая любимое чадо деньгами, он постоянно опасается за собственную жизнь. Родители Лены – слабая и слезливая мама, и жестокий бескомпромиссный отец – выгоняют девочку из дома. И только совершенно посторонняя женщина пытается вмешаться и спасти Лену от рокового шага...



Семпл: http://yadi.sk/d/pXSAte_oSFs2Q

Качество видео: SATRip
Формат видео: AVI

Видео: 640x480 (1.33:1), 25 fps, XviD build 50 ~2213 kbps avg, 0.29 bit/pixel
Аудио: 48 kHz, AC3 Dolby Digital, 2/0 (L,R) ch, ~192 kbps
Под небом голубым... [by alenavova].avi
Format : AVI
Format/Info : Audio Video Interleave
File size : 1.42 GiB
Duration : 1h 24mn
Overall bit rate : 2 415 Kbps
Movie name : Под небом голубым... [by alenavova]
Director : Rip by alenavova
Writing application : VirtualDubMod 1.5.10.3 | http://www.virtualdub-fr.org || (build 2550/release)
Copyright : Edich2
Comment : RuTracker.org

Video
ID : 0
Format : MPEG-4 Visual
Format profile : Advanced Simple@L5
Format settings, BVOP : 2
Format settings, QPel : No
Format settings, GMC : No warppoints
Format settings, Matrix : Custom
Codec ID : XVID
Codec ID/Hint : XviD
Duration : 1h 24mn
Bit rate : 2 213 Kbps
Width : 640 pixels
Height : 480 pixels
Display aspect ratio : 4:3
Frame rate : 25.000 fps
Color space : YUV
Chroma subsampling : 4:2:0
Bit depth : 8 bits
Scan type : Progressive
Compression mode : Lossy
Bits/(Pixel*Frame) : 0.288
Stream size : 1.30 GiB (92%)
Writing library : XviD 1.2.1 (UTC 2008-12-04)

Audio
ID : 1
Format : AC-3
Format/Info : Audio Coding 3
Mode extension : CM (complete main)
Format settings, Endianness : Big
Codec ID : 2000
Duration : 1h 24mn
Bit rate mode : Constant
Bit rate : 192 Kbps
Channel(s) : 2 channels
Channel positions : Front: L R
Sampling rate : 48.0 KHz
Bit depth : 16 bits
Compression mode : Lossy
Stream size : 115 MiB (8%)
Alignment : Split accross interleaves
Interleave, duration : 40 ms (1.00 video frame)
Interleave, preload duration : 500 ms


загрузка...
Правила, инструкции, FAQ!!!
Торрент  Добавлен [21 окт 2014, 20:55] Скачать торрент Магнет ссылка
Скачать торрент
[ Размер 14.68 КБ / Просмотров 62 ]

Статус
Проверен 
 
Размер  1.42 ГБ
Приватный: Нет (DHT включён)
.torrent скачан  6
Как залить торрент? | Как скачать Torrent? | Ошибка в торренте? Качайте магнет  


     Отправить личное сообщение
   
Страница 1 из 1
Показать сообщения за:  Поле сортировки  
Начать новую тему Ответить на тему

   Похожие торренты   Автор   Ответы   Просмотры   Последнее сообщение 
В этой теме нет новых непрочитанных сообщений. Скачать торрент Проверен Ольга Власова | Антипсихиатрия. Социальная теория и социальная практика (2014) [PDF]

в форуме Популярная психология, Размер: 5.82 МБ, Здоровье: 81%

Anonymous

0
9|11

65
2

19 янв 2016, 18:53

Anonymous Перейти к последнему сообщению

В этой теме нет новых непрочитанных сообщений. Скачать торрент Проверен Сборник книг по социальной работе: социальная педагогика, социальная психология и т.п. Включая методички - 2011 [PDF]

в форуме Многопредметные коллекции (подборки), Размер: 97.33 МБ, Здоровье: 100%

Anonymous

0
12|11

118
6

21 дек 2016, 00:41

Anonymous Перейти к последнему сообщению

В этой теме нет новых непрочитанных сообщений. Скачать торрент Проверен А. Ф. Базилюк | Социальная философия «неомарксизма» (1989) [DJVU]

в форуме Научно-популярная лит-ра, Размер: 1.5 МБ, Здоровье: 11%

Anonymous

0
2|18

44
0

28 июн 2014, 23:55

Anonymous Перейти к последнему сообщению

В этой теме нет новых непрочитанных сообщений. Скачать торрент Социальная сеть / The Social Network (Дэвид Финчер / David Fincher) [2010, драма, BDRip-AVC]

в форуме 720p | 1080p, Размер: 2.18 ГБ, Здоровье: 100%

Anonymous

0
35|11

53
0

19 фев 2014, 09:56

Anonymous Перейти к последнему сообщению

В этой теме нет новых непрочитанных сообщений. Скачать торрент Проверен Город Зеро (Карен Шахназаров) [1988, СССР, социальная драма, Blu-ray disc] [Полная реставрация ]

в форуме Наше кино (HD Video), Размер: 22.92 ГБ, Здоровье: 100%

Anonymous

0
25|7

187
0

12 апр 2015, 15:06

Anonymous Перейти к последнему сообщению



Сейчас этот форум просматривают: нет зарегистрированных пользователей и гости: 0


Вы не можете начинать темы
Вы не можете отвечать на сообщения
Вы не можете редактировать свои сообщения
Вы не можете удалять свои сообщения
Вы не можете добавлять вложения

Перейти:  
Ресурс не предоставляет электронные версии произведений, а занимается лишь коллекционированием и каталогизацией ссылок, присылаемых и публикуемых на форуме нашими читателями. Если вы являетесь правообладателем какого-либо представленного материала и не желаете чтобы ссылка на него находилась в нашем каталоге, свяжитесь с нами и мы незамедлительно удалим её. Файлы для обмена на трекере предоставлены пользователями сайта, и администрация не несёт ответственности за их содержание. Просьба не заливать файлы, защищенные авторскими правами, а также файлы нелегального содержания!
cron