На всех торрентах на трекере установлена скидка на скачивание в размере 100 процентов(а).
 Возможность скачивания торрента НЕ зависит от ограничений при низком ратио, низком аплоаде, требуемом ратио или требуемом аплоаде.


Начать новую тему Ответить на тему
Статистика раздачи
Размер: 747.42 МБ | Добавлен: 21 окт 2014, 20:55 | Скачали: 0
Сидеров: 18  [0 байт/сек]    Личеров: 6  [0 байт/сек]
Пред. тема | След. тема 

Автор
Сообщение

СообщениеДобавлено: 21 окт 2014, 20:55 

Ответить с цитатой 

По следам Чарвадаров


Жанр: Киноповесть, экранизация
Год выпуска: 1974
Продолжительность: 01:08:38


Режиссёр: Тофик Исмайлов

В ролях: Гасанага Турабов, Шафига Мамедова, Мухтар Маниев, Самандар Рзаев, Лейла Бадирбейли (Джаванширова), Мамедрза Шейхзаманов, Садых Гусейнов, Абдул (Абдула) Махмудов, Садагат Дадашева, В. Исмайлова

Описание: Телефильм по мотивам повести Ильяса Эфендиева "Строители мостов". Повествует о строителях дорог.

Семпл



Качество видео: VHSRip
Формат видео: AVI

Видео: Xvid 704x528 25fps 1321 kbps
Аудио: Dolby AC3 48000Hz stereo 192kbps



Complete name : По следам Чарвадаров (1974) VHSRip.avi
Format : AVI
Format/Info : Audio Video Interleave
File size : 747 MiB
Duration : 1h 8mn
Overall bit rate : 1 523 Kbps
Writing application : VirtualDubMod 1.5.10.2 (build 2540/release)
Writing library : VirtualDubMod build 2540/release

Video
ID : 0
Format : MPEG-4 Visual
Format profile : Advanced Simple@L5
Format settings, BVOP : Yes
Format settings, QPel : No
Format settings, GMC : No warppoints
Format settings, Matrix : Default (H.263)
Codec ID : XVID
Codec ID/Hint : XviD
Duration : 1h 8mn
Bit rate : 1 321 Kbps
Width : 704 pixels
Height : 528 pixels
Display aspect ratio : 4:3
Frame rate : 25.000 fps
Color space : YUV
Chroma subsampling : 4:2:0
Bit depth : 8 bits
Scan type : Progressive
Compression mode : Lossy
Bits/(Pixel*Frame) : 0.142
Stream size : 648 MiB (87%)
Writing library : XviD 1.2.0.dev47 (UTC 2006-11-01)

Audio
ID : 1
Format : AC-3
Format/Info : Audio Coding 3
Mode extension : CM (complete main)
Format settings, Endianness : Big
Codec ID : 2000
Duration : 1h 8mn
Bit rate mode : Constant
Bit rate : 192 Kbps
Channel(s) : 2 channels
Channel positions : Front: L R
Sampling rate : 48.0 KHz
Bit depth : 16 bits
Compression mode : Lossy
Stream size : 94.3 MiB (13%)
Alignment : Split accross interleaves
Interleave, duration : 40 ms (1.00 video frame)
Interleave, preload duration : 500 ms






загрузка...
Правила, инструкции, FAQ!!!
Торрент  Добавлен [21 окт 2014, 20:55] Скачать торрент Магнет ссылка
Скачать торрент
[ Размер 15.12 КБ / Просмотров 14 ]

Статус
Проверен 
 
Размер  747.42 МБ
Приватный: Нет (DHT включён)
.torrent скачан  0
Как залить торрент? | Как скачать Torrent? | Ошибка в торренте? Качайте магнет  


     Отправить личное сообщение
   
Страница 1 из 1
Показать сообщения за:  Поле сортировки  
Начать новую тему Ответить на тему

   Похожие торренты   Автор   Ответы   Просмотры   Последнее сообщение 
В этой теме нет новых непрочитанных сообщений. Скачать торрент Проверен Сурайя (Тофик Исмайлов) [1987, Драма, VHSRip]

в форуме Кино СССР, Размер: 1.09 ГБ, Здоровье: 100%

Anonymous

0
12|3

174
0

21 окт 2014, 21:00

Anonymous Перейти к последнему сообщению

В этой теме нет новых непрочитанных сообщений. Скачать торрент Проверен Первое признание (Павле Чарквиани) [1974, лирическая киноповесть, короткометражный, DVB]

в форуме Детское, Семейное кино, Размер: 317.77 МБ, Здоровье: 100%

Гость

0
9|2

37
0

10 апр 2016, 20:25

Гость Перейти к последнему сообщению

В этой теме нет новых непрочитанных сообщений. Скачать торрент Проверен Вратарь (Э. Мухин) [1974, короткометражка, детский, VHSRip]

в форуме Детское, Семейное кино, Размер: 518.68 МБ, Здоровье: 100%

Anonymous

0
28|9

196
0

11 апр 2016, 23:43

Anonymous Перейти к последнему сообщению

В этой теме нет новых непрочитанных сообщений. Скачать торрент Проверен Elton John - Live At Hammersmith Odeon [1974, Pop Rock, VHSRip]

в форуме Концерты (DVD-Video), Размер: 2.72 ГБ, Здоровье: 0%

Anonymous

0
0|0

27
0

12 ноя 2017, 00:47

Anonymous Перейти к последнему сообщению

В этой теме нет новых непрочитанных сообщений. Скачать торрент Проверен Elton John - Live, Rare & Unseen, Vol. 2 [1974-1978, Rock/Pop, VHSRip]

в форуме Концерты (DVD-Video), Размер: 3.99 ГБ, Здоровье: 100%

Anonymous

0
1|0

10
0

12 ноя 2017, 00:47

Anonymous Перейти к последнему сообщению



Сейчас этот форум просматривают: нет зарегистрированных пользователей и гости: 0


Вы не можете начинать темы
Вы не можете отвечать на сообщения
Вы не можете редактировать свои сообщения
Вы не можете удалять свои сообщения
Вы не можете добавлять вложения

Перейти:  
Ресурс не предоставляет электронные версии произведений, а занимается лишь коллекционированием и каталогизацией ссылок, присылаемых и публикуемых на форуме нашими читателями. Если вы являетесь правообладателем какого-либо представленного материала и не желаете чтобы ссылка на него находилась в нашем каталоге, свяжитесь с нами и мы незамедлительно удалим её. Файлы для обмена на трекере предоставлены пользователями сайта, и администрация не несёт ответственности за их содержание. Просьба не заливать файлы, защищенные авторскими правами, а также файлы нелегального содержания!
cron