На всех торрентах на трекере установлена скидка на скачивание в размере 100 процентов(а).
 Возможность скачивания торрента НЕ зависит от ограничений при низком ратио, низком аплоаде, требуемом ратио или требуемом аплоаде.


Начать новую тему Ответить на тему
Статистика раздачи
Размер: 14.86 ГБ | Добавлен: 02 май 2018, 20:55 | Скачали: 91
Сидеров: 120  [0 байт/сек]    Личеров: 13  [0 байт/сек]
Пред. тема | След. тема 

Автор
Сообщение

СообщениеДобавлено: 28 апр 2018, 12:17 

Ответить с цитатой 

Супермодератор
Супермодератор
Аватара пользователя

Стаж: 1 год 6 месяцев
Раздал: 932.88 ГБ
Скачал: 0 байт
Ратио: Seed.
Торренты: 3
Информация о фильме
Название: Планета Ка-Пэкс
Оригинальное название: K-PAX
Год выхода: 2001
Жанр: Фантастика, драма
Режиссер: Иэн Софтли
В ролях: Кевин Спейси, Джефф Бриджес, Мэри МакКормак, Элфри Вудард, Дэвид Патрик Келли, Сол Уильямс, Питер Герети, Селия Уэстон, Аджай Найду, Трэйси Вилар

О фильме: В Манхэттенский психиатрический институт привозят странного человека в черных очках. Он зовет себя Протом и утверждает, что его родина - далекая планета Ка-Пэкс, откуда он мгновенно перенесся на Землю в луче света. Несмотря на все усилия, опытному доктору Пауэллу не удается разгадать загадку таинственного пациента, который охотно и весьма убедительно доказывает всем свое внеземное происхождение и заранее назначает дату своего возвращения на Ка-Пэкс. Вскоре Марка Пауэлла, так и не сумевшего приоткрыть тайну личности своего самого удивительного подопечного, начинает тревожить невероятная, но навязчивая мысль: может быть, Прот вовсе не сумасшедший и в его словах есть доля правды…

Страна: Германия, США
Студия: IMF Internationale Medien und Film GmbH & Co. 2. Produktions KG, Intermedia Films, Lawrence Gordon Productions, Pathé Pictures International
Продолжительность: 02:00:14
Перевод: Профессиональный многоголосый, профессиональный двухголосный, авторский
Субтитры: русские, английские

Файл
Кодек: x264
Качество: HDRip 1080p (Исходник лучше чем DTheater 1080i)
Видео: AVC, 1920x816, 12 Mbps, 24 fps
Звук-01: Rus: DTS, 768 Kbps, 6 ch - Многоголосый (Liga HQ)
Звук-02: Rus: AC3, 448 Kbps, 6 ch - Многоголосый (LDV)
Звук-03: Rus: AC3, 384 Kbps, 6 ch - Многоголосый (Twister/Paradise)
Звук-04: Rus: AC3, 192 Kbps, 2 ch - Двухголосый (НТВ+)

Дополнительно
Звук-05: Rus: DTS, 768 Kbps, 6 ch - Авторский (С. Визгунов)
Звук-06: Rus: DTS, 768 Kbps, 6 ch - Авторский (Ю. Сербин)
Звук-07: Rus: DTS, 768 Kbps, 6 ch - Авторский (Ю. Живов)
Звук-08: Ukr: AC3, 448 Kbps, 6 ch - Многоголосый (Омикрон)
Звук-09: Eng: DTS, 768 Kbps, 6 ch - Оригинальный
Звук-10: Rus: AC3, 384 Kbps, 6 ch - Многоголосый (Карусель)




Общее
Уникальный идентификатор : 222103474163197312279154610390193704417 (0xA71792BAE5D51BC99D9D9E8C88108DE1)
Полное имя : D:/Хранилище/Видео/Ка-Пекс/K-PAX/K-PAX.2001.HDDVDRip.1080p.mkv
Формат : Matroska
Версия формата : Version 4 / Version 2
Размер файла : 11,6 Гбайт
Продолжительность : 2 ч. 0 м.
Общий поток : 13,8 Мбит/сек
Дата кодирования : UTC 2018-04-28 01:34:11
Программа кодирования : mkvmerge v13.0.0 ('The Juggler') 64bit
Библиотека кодирования : libebml v1.3.4 + libmatroska v1.4.5
Обложка : Yes
Attachments : cover.jpg

Видео
Идентификатор : 1
Формат : AVC
Формат/Информация : Advanced Video Codec
Профиль формата : High@L4.1
Параметр CABAC формата : Да
Параметр ReFrames формата : 4 кадра
Идентификатор кодека : V_MPEG4/ISO/AVC
Продолжительность : 2 ч. 0 м.
Битрейт : 12,0 Мбит/сек
Ширина : 1920 пикселей
Высота : 816 пикселей
Соотношение сторон : 2,35:1
Режим частоты кадров : Постоянный
Частота кадров : 24,000 кадра/сек
Цветовое пространство : YUV
Субдискретизация насыщенности : 4:2:0
Битовая глубина : 8 бит
Тип развёртки : Прогрессивная
Бит/(Пиксели*Кадры) : 0.319
Размер потока : 10,1 Гбайт (87%)
Заголовок : K-PAX
Библиотека кодирования : x264 core 155 r2901 7d0ff22
Настройки программы : cabac=1 / ref=4 / deblock=1:-1:-1 / analyse=0x3:0x133 / me=tesa / subme=11 / psy=1 / psy_rd=1.00:0.00 / mixed_ref=1 / me_range=32 / chroma_me=1 / trellis=2 / 8x8dct=1 / cqm=0 / deadzone=21,11 / fast_pskip=0 / chroma_qp_offset=-2 / threads=18 / lookahead_threads=2 / sliced_threads=0 / nr=0 / decimate=1 / interlaced=0 / bluray_compat=0 / constrained_intra=0 / bframes=4 / b_pyramid=2 / b_adapt=2 / b_bias=0 / direct=3 / weightb=1 / open_gop=0 / weightp=2 / keyint=230 / keyint_min=23 / scenecut=40 / intra_refresh=0 / rc_lookahead=120 / rc=2pass / mbtree=1 / bitrate=12000 / ratetol=4.0 / qcomp=0.70 / qpmin=0 / qpmax=51 / qpstep=4 / cplxblur=20.0 / qblur=0.5 / vbv_maxrate=62500 / vbv_bufsize=78125 / nal_hrd=none / filler=0 / ip_ratio=1.40 / aq=1:0.90
Default : Да
Forced : Да

Аудио #1
Идентификатор : 2
Формат : DTS
Формат/Информация : Digital Theater Systems
Режим : 16
Параметр Endianness формата : Big
Идентификатор кодека : A_DTS
Продолжительность : 2 ч. 0 м.
Вид битрейта : Постоянный
Битрейт : 768 Кбит/сек
Каналы : 6 каналов
Расположение каналов : Front: L C R, Side: L R, LFE
Частота : 48,0 КГц
Частота кадров : 93,750 кадра/сек (512 spf)
Битовая глубина : 16 бит
Метод сжатия : С потерями
Размер потока : 661 Мбайт (6%)
Заголовок : Liga hq
Язык : Russian
Default : Да
Forced : Нет

Аудио #2
Идентификатор : 3
Формат : AC-3
Формат/Информация : Audio Coding 3
Расширение режима : CM (complete main)
Параметр Endianness формата : Big
Идентификатор кодека : A_AC3
Продолжительность : 2 ч. 0 м.
Вид битрейта : Постоянный
Битрейт : 448 Кбит/сек
Каналы : 6 каналов
Расположение каналов : Front: L C R, Side: L R, LFE
Частота : 48,0 КГц
Частота кадров : 31,250 кадров/сек (1536 spf)
Битовая глубина : 16 бит
Метод сжатия : С потерями
Задержка видео : 1 с. 0 мс.
Размер потока : 386 Мбайт (3%)
Заголовок : LDV
Язык : Russian
Default : Нет
Forced : Нет

Аудио #3
Идентификатор : 4
Формат : AC-3
Формат/Информация : Audio Coding 3
Расширение режима : CM (complete main)
Параметр Endianness формата : Big
Идентификатор кодека : A_AC3
Продолжительность : 2 ч. 0 м.
Вид битрейта : Постоянный
Битрейт : 384 Кбит/сек
Каналы : 6 каналов
Расположение каналов : Front: L C R, Side: L R, LFE
Частота : 48,0 КГц
Частота кадров : 31,250 кадров/сек (1536 spf)
Битовая глубина : 16 бит
Метод сжатия : С потерями
Задержка видео : 1 с. 0 мс.
Размер потока : 330 Мбайт (3%)
Заголовок : Twister
Язык : Russian
Default : Нет
Forced : Нет

Аудио #4
Идентификатор : 5
Формат : AC-3
Формат/Информация : Audio Coding 3
Расширение режима : CM (complete main)
Параметр Endianness формата : Big
Идентификатор кодека : A_AC3
Продолжительность : 2 ч. 0 м.
Вид битрейта : Постоянный
Битрейт : 192 Кбит/сек
Каналы : 2 канала
Расположение каналов : Front: L R
Частота : 48,0 КГц
Частота кадров : 31,250 кадров/сек (1536 spf)
Битовая глубина : 16 бит
Метод сжатия : С потерями
Размер потока : 165 Мбайт (1%)
Заголовок : NTV+
Язык : Russian
Default : Нет
Forced : Нет

Текст #1
Идентификатор : 6
Формат : UTF-8
Идентификатор кодека : S_TEXT/UTF8
Идентификатор кодека/Информация : UTF-8 Plain Text
Продолжительность : 1 ч. 52 м.
Битрейт : 72 бит/сек
Count of elements : 1105
Размер потока : 59,5 Кбайт (0%)
Язык : Russian
Default : Нет
Forced : Нет

Текст #2
Идентификатор : 7
Формат : UTF-8
Идентификатор кодека : S_TEXT/UTF8
Идентификатор кодека/Информация : UTF-8 Plain Text
Продолжительность : 1 ч. 57 м.
Битрейт : 66 бит/сек
Count of elements : 1515
Размер потока : 57,1 Кбайт (0%)
Язык : English
Default : Нет
Forced : Нет

Общее
Уникальный идентификатор : 253895455604563709324127717135789150163 (0xBF027C6F09150D739902D2DA8D214FD3)
Полное имя : D:/Хранилище/Видео/Ка-Пекс/K-PAX/K-PAX.2001.Track.5.Vizgunov.rus.mka
Формат : Matroska
Версия формата : Version 4 / Version 2
Размер файла : 662 Мбайт
Продолжительность : 2 ч. 0 м.
Режим общего битрейта : Постоянный
Общий поток : 770 Кбит/сек
Дата кодирования : UTC 2018-04-27 17:17:39
Программа кодирования : mkvmerge v13.0.0 ('The Juggler') 64bit
Библиотека кодирования : libebml v1.3.4 + libmatroska v1.4.5

Аудио
Идентификатор : 1
Формат : DTS
Формат/Информация : Digital Theater Systems
Режим : 16
Параметр Endianness формата : Big
Идентификатор кодека : A_DTS
Продолжительность : 2 ч. 0 м.
Вид битрейта : Постоянный
Битрейт : 768 Кбит/сек
Каналы : 6 каналов
Расположение каналов : Front: L C R, Side: L R, LFE
Частота : 48,0 КГц
Частота кадров : 93,750 кадра/сек (512 spf)
Битовая глубина : 16 бит
Метод сжатия : С потерями
Размер потока : 661 Мбайт (100%)
Заголовок : Vizgunov
Язык : Russian
Default : Да
Forced : Нет

Общее
Уникальный идентификатор : 200444259353664854017527177781197562230 (0x96CC28FE14D670EAABA5F79525266176)
Полное имя : D:/Хранилище/Видео/Ка-Пекс/K-PAX/K-PAX.2001.Track.6.Serbin.rus.mka
Формат : Matroska
Версия формата : Version 4 / Version 2
Размер файла : 662 Мбайт
Продолжительность : 2 ч. 0 м.
Режим общего битрейта : Постоянный
Общий поток : 770 Кбит/сек
Дата кодирования : UTC 2018-04-27 17:21:08
Программа кодирования : mkvmerge v13.0.0 ('The Juggler') 64bit
Библиотека кодирования : libebml v1.3.4 + libmatroska v1.4.5

Аудио
Идентификатор : 1
Формат : DTS
Формат/Информация : Digital Theater Systems
Режим : 16
Параметр Endianness формата : Big
Идентификатор кодека : A_DTS
Продолжительность : 2 ч. 0 м.
Вид битрейта : Постоянный
Битрейт : 768 Кбит/сек
Каналы : 6 каналов
Расположение каналов : Front: L C R, Side: L R, LFE
Частота : 48,0 КГц
Частота кадров : 93,750 кадра/сек (512 spf)
Битовая глубина : 16 бит
Метод сжатия : С потерями
Размер потока : 661 Мбайт (100%)
Заголовок : Serbin
Язык : Russian
Default : Да
Forced : Нет

Общее
Уникальный идентификатор : 176520087198536959919486530582899117880 (0x84CC883C6F1FA951A9ADBAB7EF6CCF38)
Полное имя : D:/Хранилище/Видео/Ка-Пекс/K-PAX/K-PAX.2001.Track.7.Zhivov.rus.mka
Формат : Matroska
Версия формата : Version 4 / Version 2
Размер файла : 662 Мбайт
Продолжительность : 2 ч. 0 м.
Режим общего битрейта : Постоянный
Общий поток : 770 Кбит/сек
Дата кодирования : UTC 2018-04-27 17:25:33
Программа кодирования : mkvmerge v13.0.0 ('The Juggler') 64bit
Библиотека кодирования : libebml v1.3.4 + libmatroska v1.4.5

Аудио
Идентификатор : 1
Формат : DTS
Формат/Информация : Digital Theater Systems
Режим : 16
Параметр Endianness формата : Big
Идентификатор кодека : A_DTS
Продолжительность : 2 ч. 0 м.
Вид битрейта : Постоянный
Битрейт : 768 Кбит/сек
Каналы : 6 каналов
Расположение каналов : Front: L C R, Side: L R, LFE
Частота : 48,0 КГц
Частота кадров : 93,750 кадра/сек (512 spf)
Битовая глубина : 16 бит
Метод сжатия : С потерями
Размер потока : 661 Мбайт (100%)
Заголовок : Zhivov
Язык : Russian
Default : Да
Forced : Нет

Общее
Уникальный идентификатор : 195241230300230362572381621792373226613 (0x92E217DABCD74C76A864C12464A43C75)
Полное имя : D:/Хранилище/Видео/Ка-Пекс/K-PAX/K-PAX.2001.Track.8.Omikron.ukr.mka
Формат : Matroska
Версия формата : Version 4 / Version 2
Размер файла : 385 Мбайт
Продолжительность : 2 ч. 0 м.
Режим общего битрейта : Постоянный
Общий поток : 449 Кбит/сек
Дата кодирования : UTC 2018-04-28 00:03:03
Программа кодирования : mkvmerge v13.0.0 ('The Juggler') 64bit
Библиотека кодирования : libebml v1.3.4 + libmatroska v1.4.5

Аудио
Идентификатор : 1
Формат : AC-3
Формат/Информация : Audio Coding 3
Расширение режима : CM (complete main)
Параметр Endianness формата : Big
Идентификатор кодека : A_AC3
Продолжительность : 2 ч. 0 м.
Вид битрейта : Постоянный
Битрейт : 448 Кбит/сек
Каналы : 6 каналов
Расположение каналов : Front: L C R, Side: L R, LFE
Частота : 48,0 КГц
Частота кадров : 31,250 кадров/сек (1536 spf)
Битовая глубина : 16 бит
Метод сжатия : С потерями
Размер потока : 385 Мбайт (100%)
Заголовок : Omikron
Язык : Ukrainian
Default : Да
Forced : Нет

Общее
Уникальный идентификатор : 242179785695166385640260872933708691288 (0xB632214F83F8B339BA177E1FD7D87758)
Полное имя : D:/Хранилище/Видео/Ка-Пекс/K-PAX/K-PAX.2001.Track.9.Original.eng.mka
Формат : Matroska
Версия формата : Version 4 / Version 2
Размер файла : 650 Мбайт
Продолжительность : 2 ч. 0 м.
Режим общего битрейта : Постоянный
Общий поток : 756 Кбит/сек
Дата кодирования : UTC 2018-04-27 17:30:49
Программа кодирования : mkvmerge v13.0.0 ('The Juggler') 64bit
Библиотека кодирования : libebml v1.3.4 + libmatroska v1.4.5

Аудио
Идентификатор : 1
Формат : DTS
Формат/Информация : Digital Theater Systems
Режим : 16
Параметр Endianness формата : Big
Идентификатор кодека : A_DTS
Продолжительность : 2 ч. 0 м.
Вид битрейта : Постоянный
Битрейт : 755 Кбит/сек
Каналы : 6 каналов
Расположение каналов : Front: L C R, Side: L R, LFE
Частота : 48,0 КГц
Частота кадров : 93,750 кадра/сек (512 spf)
Битовая глубина : 16 бит
Метод сжатия : С потерями
Размер потока : 649 Мбайт (100%)
Заголовок : Original
Язык : English
Default : Да
Forced : Нет

Релиз от:
-
Правила, инструкции, FAQ!!!
Торрент  Добавлен [02 май 2018, 20:55] Скачать торрент Магнет ссылка
Скачать торрент
[ Размер 75.76 КБ / Просмотров 88 ]

Статус
Проверен 
 
Размер  14.86 ГБ
Приватный: Нет (DHT включён)
.torrent скачан  91
Как залить торрент? | Как скачать Torrent? | Ошибка в торренте? Качайте магнет  


Профиль     Отправить личное сообщение
   
Страница 1 из 1
Показать сообщения за:  Поле сортировки  
Начать новую тему Ответить на тему

   Похожие торренты   Автор   Ответы   Просмотры   Последнее сообщение 
В этой теме нет новых непрочитанных сообщений. Скачать торрент Планета Ка-Пэкс / K-Pax (2001) HDRip | Р

в форуме Фантастика, Фэнтези, Размер: 2.17 ГБ, Здоровье: 100%

Anonymous

0
55|1

130
279

30 июн 2013, 00:17

Anonymous Перейти к последнему сообщению

В этой теме нет новых непрочитанных сообщений. Скачать торрент Планета Ка-Пэкс / K-Pax (2001) HDRip | Р

в форуме Фантастика, Фэнтези, Размер: 746.3 МБ, Здоровье: 100%

Anonymous

0
17|4

138
214

30 июн 2013, 00:26

Anonymous Перейти к последнему сообщению

В этой теме нет новых непрочитанных сообщений. Скачать торрент Проверен [iPhone] Планета Ка-Пэкс / K-PAX (Иэн Софтли/ Iain Softley) [2001, Фантастика, Драма, Детектив][Rus, Sub/ Eng., оригинал., HDRip, 720x320]

в форуме Фильмы для iPod, iPhone, iPad, Размер: 1.32 ГБ, Здоровье: 100%

Anonymous

0
1|0

17
0

24 дек 2017, 22:10

Anonymous Перейти к последнему сообщению

В этой теме нет новых непрочитанных сообщений. Скачать торрент Проверен [iPad] Планета Ка-Пэкс / K-Pax (Йен Софтли / Iain Softley) [2001, фантастика, драма, детектив, D-Theater Rip] MVO, Original (eng), sub (rus, eng)

в форуме Фильмы для iPod, iPhone, iPad, Размер: 2.2 ГБ, Здоровье: 100%

Anonymous

0
3|1

35
0

24 дек 2017, 22:57

Anonymous Перейти к последнему сообщению

В этой теме нет новых непрочитанных сообщений. Скачать торрент Проверен [iPhone] Планета "Ка-пэкс" / K-PAX (Айэйн Софтли) [2001, Фантастика, драма, HDTV]

в форуме Фильмы для iPod, iPhone, iPad, Размер: 698.44 МБ, Здоровье: 0%

Anonymous

0
0|0

7
0

24 дек 2017, 22:11

Anonymous Перейти к последнему сообщению



Сейчас этот форум просматривают: нет зарегистрированных пользователей и гости: 0


Вы не можете начинать темы
Вы не можете отвечать на сообщения
Вы не можете редактировать свои сообщения
Вы не можете удалять свои сообщения
Вы не можете добавлять вложения

Перейти:  
Ресурс не предоставляет электронные версии произведений, а занимается лишь коллекционированием и каталогизацией ссылок, присылаемых и публикуемых на форуме нашими читателями. Если вы являетесь правообладателем какого-либо представленного материала и не желаете чтобы ссылка на него находилась в нашем каталоге, свяжитесь с нами и мы незамедлительно удалим её. Файлы для обмена на трекере предоставлены пользователями сайта, и администрация не несёт ответственности за их содержание. Просьба не заливать файлы, защищенные авторскими правами, а также файлы нелегального содержания!
cron