На всех торрентах на трекере установлена скидка на скачивание в размере 100 процентов(а).
 Возможность скачивания торрента НЕ зависит от ограничений при низком ратио, низком аплоаде, требуемом ратио или требуемом аплоаде.


Начать новую тему Ответить на тему
Статистика раздачи
Размер: 1.32 ГБ | Добавлен: 06 июн 2014, 20:57 | Скачали: 574
Сидеров: 38  [0 байт/сек]    Личеров: 3  [0 байт/сек]
Пред. тема | След. тема 

Автор
Сообщение

СообщениеДобавлено: 06 июн 2014, 20:57 

Ответить с цитатой 

Название: Письмо Дракуле
Оригинальное название: Dear Dracula
Год выхода: 2012
Жанр: мультфильм, семейный
Режиссер: Чад Ван Де Кер

В ролях: Рэй Лиотта, Эмилио Эстевес, Эриель Винтер, Исаак Уилсон, Трой Бэйкер, Нэйтан Гэмбл…

О фильме:
Мальчик Сэм обожает рассказывать страшные истории и знает толк в розыгрышах. В канун праздника Хэллоуин он пишет письмо своему кумиру, графу Дракуле, и приглашает его в гости. Сэм мечтает от души повеселиться в компании вампира и до смерти напугать всех своих соседей. Наконец, в ночь празднования таинственный граф появляется на пороге дома мальчишки. Восторгу Сэма нет предела! Но вдруг выясняется, что самый опасный вампир всех времен не в состоянии внушить страх даже трехлетней девчонке!



Страна: США
Студия: Kickstart Productions
Продолжительность: 00:43:15
Перевод: Дублированный


Кодек: h.264 (MKV)
Качество: HDTV 720p
Видео: AVC, 1280 x 720, ~4093 kbps
Звук: AC-3, 2 ch, 192 kbps
Субтитры: нет

Семпл

Общее
Уникальный идентификатор : 168348648403719580577546155723716462494 (0x7EA6C532C2870C1E037BA147C20E879E)
Полное имя : F:Письмо Дракуле Dear Dracula (2012)Письмо Дракуле Dear Dracula (2012) HDTV 720p.mkv
Формат : Matroska
Версия формата : Version 2
Размер файла : 1,32 Гбайт
Продолжительность : 43 м.
Режим общего битрейта : Переменный
Общий поток : 4372 Кбит/сек
Программа кодирования : Lavf51.12.1
Библиотека кодирования : Lavf51.12.1

Видео
Идентификатор : 1
Формат : AVC
Формат/Информация : Advanced Video Codec
Профиль формата : Baseline@L3.1
Параметр CABAC формата : Нет
Параметр ReFrames формата : 1 кадр
Параметр GOP формата : M=1, N=12
Идентификатор кодека : V_MPEG4/ISO/AVC
Продолжительность : 43 м.
Вид битрейта : Переменный
Битрейт : 4093 Кбит/сек
Максимальный битрейт : 6000 Кбит/сек
Ширина : 1280 пикселей
Высота : 720 пикселей
Соотношение сторон : 16:9
Режим частоты кадров : Постоянный
Частота кадров : 25,000 кадров/сек
Частота кадров в оригинале : 24,000 кадра/сек
Цветовое пространство : YUV
Субдискретизация насыщенности : 4:2:0
Битовая глубина : 8 бит
Тип развёртки : Прогрессивная
Бит/(Пиксели*Кадры) : 0.178
Размер потока : 1,24 Гбайт (94%)
Default : Да
Forced : Нет

Аудио
Идентификатор : 2
Формат : AC-3
Формат/Информация : Audio Coding 3
Расширение режима : CM (complete main)
Параметр Endianness формата : Big
Идентификатор кодека : A_AC3
Продолжительность : 43 м.
Вид битрейта : Постоянный
Битрейт : 192 Кбит/сек
Каналы : 2 канала
Расположение каналов : Front: L R
Частота : 48,0 КГц
Битовая глубина : 16 бит
Метод сжатия : С потерями
Размер потока : 59,4 Мбайт (4%)
Default : Да
Forced : Нет
загрузка...
Правила, инструкции, FAQ!!!
Торрент  Добавлен [06 июн 2014, 20:57] Скачать торрент Магнет ссылка
Скачать торрент
[ Размер 14.1 КБ / Просмотров 5 ]

Статус
Проверен 
 
Размер  1.32 ГБ
Приватный: Нет (DHT включён)
.torrent скачан  574
Как залить торрент? | Как скачать Torrent? | Ошибка в торренте? Качайте магнет  


     Отправить личное сообщение
   
Страница 1 из 1
Показать сообщения за:  Поле сортировки  
Начать новую тему Ответить на тему

   Похожие торренты   Автор   Ответы   Просмотры   Последнее сообщение 
В этой теме нет новых непрочитанных сообщений. Скачать торрент Проверен Linkin Park - Burn It Down (Live at Billboard Music Awards 2012) HDTV 720p [2012, Alternative, HDTV 720p]

в форуме Концерты (HD-Video), Размер: 272.45 МБ, Здоровье: 100%

Anonymous

0
1|0

44
0

23 окт 2016, 11:38

Anonymous Перейти к последнему сообщению

В этой теме нет новых непрочитанных сообщений. Скачать торрент Проверен The Cure - Hurricane Festival 2012 HDTV [2012, Post - Punk/Gothic - Rock, HDTV 720p]

в форуме Концерты (HD-Video), Размер: 5.22 ГБ, Здоровье: 42%

Anonymous

0
3|7

38
2

23 окт 2016, 16:02

Anonymous Перейти к последнему сообщению

В этой теме нет новых непрочитанных сообщений. Скачать торрент Проверен Florence + The Machine - Hurricane Festival 2012 HDTV [2012, Indie/Pop - Rock, HDTV 720p]

в форуме Концерты (HD-Video), Размер: 5.68 ГБ, Здоровье: 100%

Anonymous

0
2|0

10
0

23 окт 2016, 12:30

Anonymous Перейти к последнему сообщению

В этой теме нет новых непрочитанных сообщений. Скачать торрент Проверен Heaven Shall Burn - Area4 Festival, Germany, 2012 - HD 720p [2012, Metalcore, HDTV 720p]

в форуме Концерты (HD-Video), Размер: 1.2 ГБ, Здоровье: 40%

Anonymous

0
2|5

5
2

23 окт 2016, 13:02

Anonymous Перейти к последнему сообщению

В этой теме нет новых непрочитанных сообщений. Дракула / Dracula Untold (2014) WEBRip 720p | Чистый звук

в форуме Новинки кино, Размер: 2.54 ГБ, Здоровье: 100%

Anonymous

0
30|0

1517
3

10 ноя 2014, 20:57

Anonymous Перейти к последнему сообщению



Сейчас этот форум просматривают: нет зарегистрированных пользователей и гости: 0


Вы не можете начинать темы
Вы не можете отвечать на сообщения
Вы не можете редактировать свои сообщения
Вы не можете удалять свои сообщения
Вы не можете добавлять вложения

Перейти:  
Ресурс не предоставляет электронные версии произведений, а занимается лишь коллекционированием и каталогизацией ссылок, присылаемых и публикуемых на форуме нашими читателями. Если вы являетесь правообладателем какого-либо представленного материала и не желаете чтобы ссылка на него находилась в нашем каталоге, свяжитесь с нами и мы незамедлительно удалим её. Файлы для обмена на трекере предоставлены пользователями сайта, и администрация не несёт ответственности за их содержание. Просьба не заливать файлы, защищенные авторскими правами, а также файлы нелегального содержания!
cron