На всех торрентах на трекере установлена скидка на скачивание в размере 100 процентов(а).
 Возможность скачивания торрента НЕ зависит от ограничений при низком ратио, низком аплоаде, требуемом ратио или требуемом аплоаде.


Начать новую тему Ответить на тему
Статистика раздачи
Размер: 2.61 ГБ | Добавлен: 15 ноя 2015, 23:57 | Скачали: 63
Сидеров: 55  [0 байт/сек]    Личеров: 18  [0 байт/сек]
Пред. тема | След. тема 

Автор
Сообщение

СообщениеДобавлено: 15 ноя 2015, 23:57 

Ответить с цитатой 

Релиз от: ENGINEER



Название: Пираты Карибского моря: На краю Света
Оригинальное название: Pirates of the Caribbean: At World's End
Год выхода: 20077
Жанр: Фэнтези, боевик, приключения

Режиссер: Гор Вербински / Gore Verbinski

В ролях: Джонни Депп /Johnny Depp/, Орландо Блум /Orlando Bloom/, Кира Найтли /Keira Knightley/, Джеффри Раш /Geoffrey Rush/, Джонатан Прайс /Jonathan Pryce/, Билл Найи /Bill Nighy/

О фильме:
Новые приключения Джека Воробья и его друзей Уилла Тернера и Элизабет Суонн. На этот раз Уиллу и Элизабет придется объединиться с самим Капитаном Барбоссой для того, чтобы отправиться на край света и спасти своего друга — Джека. Ситуация осложняется тем, что Элизабет попадает к сингапурским пиратам…



Страна: США
Студия: Walt Disney Pictures
Продолжительность: 02:38:56
Перевод: Профессиональный (дублированный)
Оригинальная дорожка (384/6, Отдельно)

Качество: HDTVRip
Файл : AVI
Кодек: XviD, build 65 codec
Видео: 704 x 400; 23.976 fps; 1579 kbps; 0.23 bit/pixel
Аудио: 48 kHz; 5.1 ch; 384.00 kbps; AC3 Dolby Digital / Дубляж



Аудио 2: 48 kHz; 5.1 ch; 384.00 kbps; AC3 Dolby Digital / Английский | отдельно
Субтитры: Русские, Английские. | отдельно





Format : AVI
Format/Info : Audio Video Interleave
Format profile : OpenDML
File size : 2.19 GiB
Duration : 2h 38mn
Overall bit rate : 1 970 Kbps
Movie name : Пираты Карибского моря: На краю Света / Pirates of the Caribbean: At World's End (2007)
Director : MECHANICAL ENGINEER (HDTVRip 720p] [Open Matte]
Genre : Фэнтези,боевик,приключения
Writing application : VirtualDubMod 1.5.10.3 | http://www.virtualdub-fr.org || (build 2550/release)
Original source form/Name : Home Video
Copyright : США
Comment : 14.11.2015

Video
ID : 0
Format : MPEG-4 Visual
Format profile : Advanced Simple@L5
Format settings, BVOP : 1
Format settings, QPel : No
Format settings, GMC : No warppoints
Format settings, Matrix : Custom
Codec ID : XVID
Codec ID/Hint : XviD
Duration : 2h 38mn
Bit rate : 1 574 Kbps
Width : 704 pixels
Height : 400 pixels
Display aspect ratio : 16:9
Frame rate : 23.976 fps
Color space : YUV
Chroma subsampling : 4:2:0
Bit depth : 8 bits
Scan type : Progressive
Compression mode : Lossy
Bits/(Pixel*Frame) : 0.233
Stream size : 1.75 GiB (80%)
Writing library : XviD 65

Audio
ID : 1
Format : AC-3
Format/Info : Audio Coding 3
Mode extension : CM (complete main)
Format settings, Endianness : Big
Codec ID : 2000
Duration : 2h 38mn
Bit rate mode : Constant
Bit rate : 384 Kbps
Channel(s) : 6 channels
Channel positions : Front: L C R, Side: L R, LFE
Sampling rate : 48.0 KHz
Bit depth : 16 bits
Compression mode : Lossy
Stream size : 437 MiB (19%)
Alignment : Split accross interleaves
Interleave, duration : 42 ms (1.00 video frame)
Interleave, preload duration : 500 ms




Другое наполнение кадра.

Автор рипа:
Источник : (HDTVRip 720p]
загрузка...
Правила, инструкции, FAQ!!!
Торрент  Добавлен [15 ноя 2015, 23:57] Скачать торрент Магнет ссылка
Скачать торрент
[ Размер 14.87 КБ / Просмотров 20 ]

Статус
Проверен 
 
Размер  2.61 ГБ
Приватный: Нет (DHT включён)
.torrent скачан  63
Как залить торрент? | Как скачать Torrent? | Как смотреть и слушать онлайн?  


     Отправить личное сообщение
   
Страница 1 из 1
Показать сообщения за:  Поле сортировки  
Начать новую тему Ответить на тему

   Похожие торренты   Автор   Ответы   Просмотры   Последнее сообщение 
В этой теме нет новых непрочитанных сообщений. Скачать торрент Проверен [iPad] Пираты Карибского моря: На краю Света / Pirates of the Caribbean: At World's End (Гор Вербински / Gore Verbinski) [2007 г., боевик, фэнтези, приключения, BDRip 720p]

в форуме Фильмы для iPod, iPhone, iPad, Размер: 3.69 ГБ, Здоровье: 100%

Гость

0
45|15

132
3

13 май 2015, 23:56

Гость Перейти к последнему сообщению

В этой теме нет новых непрочитанных сообщений. Скачать торрент Проверен [iPhone] Пираты Карибского Моря. Трилогия / Pirates of the Caribbean. Trilogy (Гор Вербински / Gore Verbinski) [2003, 2006, 2007 г., боевик, фэнтези, приключения, BDRip]

в форуме Фильмы для iPod, iPhone, iPad, Размер: 2.49 ГБ, Здоровье: 100%

Гость

0
23|13

199
3

18 май 2015, 10:38

Гость Перейти к последнему сообщению

В этой теме нет новых непрочитанных сообщений. Пираты Карибского моря: Мертвецы не рассказывают сказки / Pirates of the Caribbean: Dead Men Tell No Tales (2017) BDRip | Лицензия

в форуме Новинки кино, Размер: 1.46 ГБ, Здоровье: 100%

Гость

0
1057|640

160
1022

13 сен 2017, 20:29

Гость Перейти к последнему сообщению

В этой теме нет новых непрочитанных сообщений. Пираты Карибского моря: Мертвецы не рассказывают сказки / Pirates of the Caribbean: Dead Men Tell No Tales (2017) BDRip 720p | Лицензия

в форуме Новинки кино, Размер: 6.82 ГБ, Здоровье: 100%

Гость

0
2823|792

133
7042

14 сен 2017, 22:22

Гость Перейти к последнему сообщению

В этой теме нет новых непрочитанных сообщений. Скачать торрент Проверен Пираты Карибского моря: Мертвецы не рассказывают сказки / Pirates of the Caribbean: Dead Men Tell No Tales (2017) WEBRip [H.264/1080p] [Трейлер]

в форуме Трейлеры и доп.материалы, Размер: 174.49 МБ, Здоровье: 100%

Гость

0
285|24

267
6

12 фев 2017, 22:00

Гость Перейти к последнему сообщению



Сейчас этот форум просматривают: нет зарегистрированных пользователей и гости: 0


Вы не можете начинать темы
Вы не можете отвечать на сообщения
Вы не можете редактировать свои сообщения
Вы не можете удалять свои сообщения
Вы не можете добавлять вложения


!ВНИМАНИЕ!
 Ресурс не предоставляет электронные версии произведений, а занимается лишь коллекционированием и каталогизацией ссылок, присылаемых и публикуемых на форуме нашими читателями. Если вы являетесь правообладателем какого-либо представленного материала и не желаете чтобы ссылка на него находилась в нашем каталоге, свяжитесь с нами и мы незамедлительно удалим её. Файлы для обмена на трекере предоставлены пользователями сайта, и администрация не несёт ответственности за их содержание. Просьба не заливать файлы, защищенные авторскими правами, а также файлы нелегального содержания!