На всех торрентах на трекере установлена скидка на скачивание в размере 100 процентов(а).
 Возможность скачивания торрента НЕ зависит от ограничений при низком ратио, низком аплоаде, требуемом ратио или требуемом аплоаде.


Начать новую тему Ответить на тему
Статистика раздачи
Размер: 616.85 МБ | Добавлен: 30 дек 2014, 23:52 | Скачали: 3
Сидеров: 9  [0 байт/сек]    Личеров: 7  [0 байт/сек]
Пред. тема | След. тема 

Автор
Сообщение

СообщениеДобавлено: 30 дек 2014, 23:52 

Ответить с цитатой 

Производство: США | DreamWorks Animation
Год выпуска: 2005
Жанр: мультфильм, короткометражка, комедия, семейный

Описание:
Новый Год приходит в город, и все обитетели Центрального Зоопарка готовятся к его встрече. Пингвины украсили свою пещеру и мечтают о черно-белом празднике, когда юный Рядовой замечает, что Белый Медведь грустит в полном одиночестве. Окруженный своими товарищами, Рядовой решает, что никто не заслуживает таких каникул, и вырабатывает свой собственный план помощи собрату. Он тайком выбирается из Зоопарка и отправляется в большой город с целью совершить набег на магазины с новогодними подарками..

Режиссер: Гари Труздейл


Дата мировой премьеры: 7 октября 2005

Продолжительность: 00:12:08
Качество видео: BDRip
Перевод: Дублированный, многоголосый закадровый, одноголосый закадровый (П. Гланц), одноголосый закадровый (Е. Гранкин)
Язык субтитров: Русский (форсированные, полные)
Вид субтитров: Вшитые, отключаемые

Видео: MPEG-4 AVC/H.264, 1280x720 (16:9), 23.976 fps, 4 751 Kbps (0.215 bit/pixel)
Аудио #1: AC-3, 48.0 KHz, 6 ch, 448 Kbps, CBR (Русский, дублированный)
Аудио #2: AC-3, 48.0 KHz, 6 ch, 448 Kbps, CBR (Русский, многоголосый закадровый)
Аудио #3: AC-3, 48.0 KHz, 6 ch, 640 Kbps, CBR (Русский, одноголосый закадровый, П.Гланц)
Аудио #4: AC-3, 48.0 KHz, 2 ch, 224 Kbps, CBR (Русский, одноголосый закадровый, E.Гранкин)
Аудио #5: AC-3, 48.0 KHz, 6 ch, 448 Kbps, CBR (Английский, оригинал)
Complete name \Penguins.in.a.Christmas.Caper.2005.BDRip.720p.mkv
Format : Matroska
Format version : Version 2
File size : 617 MiB
Duration : 12mn 8s
Overall bit rate : 7 101 Kbps
Movie name : The Madagascar Penguins in a Christmas Caper
Encoded date : UTC 2014-12-30 18:46:29
Writing application : mkvmerge v5.8.0 ('No Sleep / Pillow') built on Sep 2 2012 15:37:04
Writing library : libebml v1.2.3 + libmatroska v1.3.0

Video
ID : 1
Format : AVC
Format/Info : Advanced Video Codec
Format profile :
Format settings, CABAC : Yes
Format settings, ReFrames : 11 frames
Codec ID : V_MPEG4/ISO/AVC
Duration : 12mn 8s
Bit rate : 4 751 Kbps
Width : 1 280 pixels
Height : 720 pixels
Display aspect ratio : 16:9
Frame rate mode : Constant
Frame rate : 23.976 fps
Color space : YUV
Chroma subsampling : 4:2:0
Bit depth : 8 bits
Scan type : Progressive
Bits/(Pixel*Frame) : 0.215
Stream size : 413 MiB (67%)
Writing library : x264 core 125 r2208 d9d2288
Encoding settings : cabac=1 / ref=11 / deblock=1:-3:-3 / analyse=0x3:0x133 / me=umh / subme=11 / psy=1 / psy_rd=1.00:0.00 / mixed_ref=1 / me_range=32 / chroma_me=1 / trellis=2 / 8x8dct=1 / cqm=0 / deadzone=21,11 / fast_pskip=0 / chroma_qp_offset=-2 / threads=12 / lookahead_threads=2 / sliced_threads=0 / nr=0 / decimate=1 / interlaced=0 / bluray_compat=0 / constrained_intra=0 / bframes=16 / b_pyramid=2 / b_adapt=2 / b_bias=0 / direct=1 / weightb=1 / open_gop=0 / weightp=2 / keyint=250 / keyint_min=23 / scenecut=40 / intra_refresh=0 / rc=crf / mbtree=0 / crf=17.0 / qcomp=0.60 / qpmin=0 / qpmax=69 / qpstep=4 / ip_ratio=1.40 / pb_ratio=1.30 / aq=1:1.00
Language : English
Default : Yes
Forced : No

Audio #1
ID : 2
Format : AC-3
Format/Info : Audio Coding 3
Mode extension : CM (complete main)
Format settings, Endianness : Big
Codec ID : A_AC3
Duration : 12mn 8s
Bit rate mode : Constant
Bit rate : 448 Kbps
Channel(s) : 6 channels
Channel positions : Front: L C R, Side: L R, LFE
Sampling rate : 48.0 KHz
Bit depth : 16 bits
Compression mode : Lossy
Stream size : 38.9 MiB (6%)
Title : дубляж
Language : Russian
Default : Yes
Forced : Yes

Audio #2
ID : 3
Format : AC-3
Format/Info : Audio Coding 3
Mode extension : CM (complete main)
Format settings, Endianness : Big
Codec ID : A_AC3
Duration : 12mn 8s
Bit rate mode : Constant
Bit rate : 448 Kbps
Channel(s) : 6 channels
Channel positions : Front: L C R, Side: L R, LFE
Sampling rate : 48.0 KHz
Bit depth : 16 bits
Compression mode : Lossy
Stream size : 38.9 MiB (6%)
Title : многоголосый закадровый
Language : Russian
Default : No
Forced : No

Audio #3
ID : 4
Format : AC-3
Format/Info : Audio Coding 3
Mode extension : CM (complete main)
Format settings, Endianness : Big
Codec ID : A_AC3
Duration : 12mn 8s
Bit rate mode : Constant
Bit rate : 640 Kbps
Channel(s) : 6 channels
Channel positions : Front: L C R, Side: L R, LFE
Sampling rate : 48.0 KHz
Bit depth : 16 bits
Compression mode : Lossy
Stream size : 55.6 MiB (9%)
Title : [AVO] П.Гланц
Language : Russian
Default : No
Forced : No

Audio #4
ID : 5
Format : AC-3
Format/Info : Audio Coding 3
Mode extension : CM (complete main)
Format settings, Endianness : Big
Codec ID : A_AC3
Duration : 12mn 8s
Bit rate mode : Constant
Bit rate : 224 Kbps
Channel(s) : 2 channels
Channel positions : Front: L R
Sampling rate : 48.0 KHz
Bit depth : 16 bits
Compression mode : Lossy
Stream size : 19.5 MiB (3%)
Title : [AVO] E.Гранкин
Language : Russian
Default : No
Forced : No

Audio #5
ID : 6
Format : AC-3
Format/Info : Audio Coding 3
Mode extension : CM (complete main)
Format settings, Endianness : Big
Codec ID : A_AC3
Duration : 12mn 8s
Bit rate mode : Constant
Bit rate : 448 Kbps
Channel(s) : 6 channels
Channel positions : Front: L C R, Side: L R, LFE
Sampling rate : 48.0 KHz
Bit depth : 16 bits
Compression mode : Lossy
Stream size : 38.9 MiB (6%)
Title : оригинал
Language : English
Default : No
Forced : No

Text #1
ID : 7
Format : UTF-8
Codec ID : S_TEXT/UTF8
Codec ID/Info : UTF-8 Plain Text
Title : Sub - форсированные
Language : Russian
Default : No
Forced : No

Text #2
ID : 8
Format : UTF-8
Codec ID : S_TEXT/UTF8
Codec ID/Info : UTF-8 Plain Text
Title : Sub - полные
Language : Russian
Default : No
Forced : No
Скриншоты:

загрузка...
Правила, инструкции, FAQ!!!
Торрент  Добавлен [30 дек 2014, 23:52] Скачать торрент Магнет ссылка
Скачать торрент
[ Размер 12.9 КБ / Просмотров 32 ]

Статус
Проверен 
 
Размер  616.85 МБ
Приватный: Нет (DHT включён)
.torrent скачан  3
Как залить торрент? | Как скачать Torrent? | Ошибка в торренте? Качайте магнет  


     Отправить личное сообщение
   
Страница 1 из 1
Показать сообщения за:  Поле сортировки  
Начать новую тему Ответить на тему

   Похожие торренты   Автор   Ответы   Просмотры   Последнее сообщение 
В этой теме нет новых непрочитанных сообщений. Скачать торрент Проверен Пингвины Мадагаскара / Penguins of Madagascar (2014) HDRip | Лицензия

в форуме Зарубежные мультфильмы, Размер: 1.49 ГБ, Здоровье: 100%

Гость

0
374|56

468
97

29 июн 2015, 22:28

Гость Перейти к последнему сообщению

В этой теме нет новых непрочитанных сообщений. Скачать торрент Проверен Пингвины Мадагаскара / Penguins of Madagascar (2014) WEB-DL 1080p | iTunes

в форуме Зарубежные мультфильмы (HD Video), Размер: 3.73 ГБ, Здоровье: 73%

Гость

0
486|662

367
623

22 янв 2015, 19:10

Гость Перейти к последнему сообщению

В этой теме нет новых непрочитанных сообщений. Скачать торрент Проверен Пингвины Мадагаскара в 3Д / Penguins of Madagascar 3D (Эрик Дарнелл, Саймон Дж. Смит) [2014, Мультфильм, Комедия, Приключения, Семейный, BDrip, 1080p] OverUnder / Вертикальная стереопара

в форуме 3D Мультфильмы, Размер: 11.34 ГБ, Здоровье: 0%

Anonymous

0
0|0

85
0

07 сен 2016, 17:43

Anonymous Перейти к последнему сообщению

В этой теме нет новых непрочитанных сообщений. Скачать торрент Проверен Пингвины Мадагаскара в 3Д / Penguins of Madagascar 3D (Эрик Дарнелл, Саймон Дж. Смит / Eric Darnell, Simon J. Smith) [2014, Мультфильм, Комедия, Приключения, Семейный, BDrip-AVC] Half OverUnder / Вертикальная анаморфная стереопара

в форуме 3D Мультфильмы, Размер: 6.98 ГБ, Здоровье: 100%

Anonymous

0
41|13

165
0

07 сен 2016, 18:21

Anonymous Перейти к последнему сообщению

В этой теме нет новых непрочитанных сообщений. Скачать торрент Проверен Пингвины Мадагаскара в 3Д / Penguins of Madagascar 3D (Эрик Дарнелл,Саймон Дж. Смит / Eric Darnell, Simon J. Smith ) [2014, Мультфильм, комедия, приключения, BDremux, 1080p] BD3D

в форуме 3D Мультфильмы, Размер: 27.94 ГБ, Здоровье: 0%

Anonymous

0
0|0

109
0

07 сен 2016, 17:45

Anonymous Перейти к последнему сообщению



Сейчас этот форум просматривают: нет зарегистрированных пользователей и гости: 1


Вы не можете начинать темы
Вы не можете отвечать на сообщения
Вы не можете редактировать свои сообщения
Вы не можете удалять свои сообщения
Вы не можете добавлять вложения

Перейти:  
Ресурс не предоставляет электронные версии произведений, а занимается лишь коллекционированием и каталогизацией ссылок, присылаемых и публикуемых на форуме нашими читателями. Если вы являетесь правообладателем какого-либо представленного материала и не желаете чтобы ссылка на него находилась в нашем каталоге, свяжитесь с нами и мы незамедлительно удалим её. Файлы для обмена на трекере предоставлены пользователями сайта, и администрация не несёт ответственности за их содержание. Просьба не заливать файлы, защищенные авторскими правами, а также файлы нелегального содержания!
cron