На всех торрентах на трекере установлена скидка на скачивание в размере 100 процентов(а).
 Возможность скачивания торрента НЕ зависит от ограничений при низком ратио, низком аплоаде, требуемом ратио или требуемом аплоаде.


Начать новую тему Ответить на тему
Статистика раздачи
Размер: 3.04 ГБ | Добавлен: 12 окт 2018, 19:14 | Скачали: 168
Сидеров: 54  [0 байт/сек]    Личеров: 22  [0 байт/сек]
Пред. тема | След. тема 

Автор
Сообщение

СообщениеДобавлено: 12 окт 2018, 19:14 

Ответить с цитатой 

Исполнитель: Пикник
Жанр: ROCK
Год выпуска: 2018
Продолжительность: 00:55:45
Описание: Концерт группы Пикник в рамках
программы "Квартирник у Маргулиса" на телеканале НТВ.

Отдельная благодарность пользователю kuzmichm2196 за исходник.

Формат: MKV
Качество: HDTV 1080i
Видео кодек: H.264
Аудио кодек: MP2
Видео: H264; 1920x1080 (16:9); 25.000 fps; ~7 700 kb/s
Аудио: MPEG Audio 48000Hz stereo 192 Кбит/сек

01. Из мышеловки
02. Иероглиф
03. Кукла с человеческим лицом
04. Египтянин
05. Злая кровь
06. Великан
07. У шамана три руки
08. Фиолетово-чёрный
09. Любо, братцы, любо
10. Настоящие дни
Piknik_2018.09.30.mkv
Format : Matroska
Format version : Version 4 / Version 2
File size : 3.04 GiB
Duration : 53 min 45 s
Overall bit rate : 8 106 kb/s
Writing application : Lavf57.71.100
Writing library : Lavf57.71.100
ErrorDetectionType : Per level 1

Video
ID : 1
Format : AVC
Format/Info : Advanced Video Codec
Format profile : High@L4
Format settings : CABAC / 4 Ref Frames
Format settings, CABAC : Yes
Format settings, ReFrames : 4 frames
Format settings, GOP : M=3, N=24
Codec ID : V_MPEG4/ISO/AVC
Duration : 53 min 45 s
Bit rate : 7 753 kb/s
Width : 1 920 pixels
Height : 1 080 pixels
Display aspect ratio : 16:9
Frame rate mode : Constant
Frame rate : 25.000 FPS
Standard : Component
Color space : YUV
Chroma subsampling : 4:2:0
Bit depth : 8 bits
Scan type : Interlaced
Scan type, store method : Separated fields
Scan order : Top Field First
Bits/(Pixel*Frame) : 0.150
Stream size : 2.91 GiB (96%)
Default : Yes
Forced : No
Color range : Limited
Color primaries : BT.709
Transfer characteristics : BT.709
Matrix coefficients : BT.709
DURATION : 00:53:45,000000000

Audio
ID : 2
Format : MPEG Audio
Format version : Version 1
Format profile : Layer 2
Codec ID : A_MPEG/L2
Codec ID/Hint : MP2
Duration : 53 min 45 s
Bit rate mode : Constant
Bit rate : 192 kb/s
Channel(s) : 2 channels
Sampling rate : 48.0 kHz
Compression mode : Lossy
Stream size : 73.8 MiB (2%)
Language : Russian
Default : Yes
Forced : No
DURATION : 00:53:44,936000000
загрузка...
Правила, инструкции, FAQ!!!
Торрент  Добавлен [12 окт 2018, 19:14] Скачать торрент Магнет ссылка
Скачать торрент
[ Размер 61.73 КБ / Просмотров 8 ]

Статус
Проверен 
 
Размер  3.04 ГБ
Приватный: Нет (DHT включён)
.torrent скачан  168
Как залить торрент? | Как скачать Torrent? | Ошибка в торренте? Качайте магнет  


     Отправить личное сообщение
   
Страница 1 из 1
Показать сообщения за:  Поле сортировки  
Начать новую тему Ответить на тему

   Похожие торренты   Автор   Ответы   Просмотры   Последнее сообщение 
В этой теме нет новых непрочитанных сообщений. Скачать торрент Проверен Группа Brazzaville - Концерт у Маргулиса на НТВ [11.03] (2018) HDTV 1080i

в форуме Концерты (HD-Video), Размер: 3.07 ГБ, Здоровье: 100%

Anonymous

0
28|2

116
1

01 апр 2018, 20:31

Anonymous Перейти к последнему сообщению

В этой теме нет новых непрочитанных сообщений. Скачать торрент Проверен Группа Пилот - Концерт у Маргулиса на НТВ [25.03] (2018) HDTV 1080i

в форуме Концерты (HD-Video), Размер: 3.28 ГБ, Здоровье: 100%

Anonymous

0
66|12

78
2

01 апр 2018, 19:36

Anonymous Перейти к последнему сообщению

В этой теме нет новых непрочитанных сообщений. Скачать торрент Проверен Александр Маршал - Концерт у Маргулиса на НТВ [18.03] (2018) HDTV 1080i

в форуме Концерты (HD-Video), Размер: 2.77 ГБ, Здоровье: 100%

Anonymous

0
19|7

114
1

01 апр 2018, 19:59

Anonymous Перейти к последнему сообщению

В этой теме нет новых непрочитанных сообщений. Скачать торрент Проверен Александр Розенбаум - Концерт у Маргулиса на НТВ [31.03] (2018) HDTV 1080i

в форуме Концерты (HD-Video), Размер: 4.55 ГБ, Здоровье: 100%

Anonymous

0
379|123

196
5

01 апр 2018, 20:01

Anonymous Перейти к последнему сообщению

В этой теме нет новых непрочитанных сообщений. Скачать торрент Проверен Бит-квартет Секрет - Концерт у Маргулиса на НТВ [16.12] (2017) HDTV 1080i

в форуме Концерты (HD-Video), Размер: 3.3 ГБ, Здоровье: 100%

Anonymous

0
417|41

509
138

17 дек 2017, 11:15

Anonymous Перейти к последнему сообщению



Сейчас этот форум просматривают: нет зарегистрированных пользователей и гости: 2


Вы не можете начинать темы
Вы не можете отвечать на сообщения
Вы не можете редактировать свои сообщения
Вы не можете удалять свои сообщения
Вы не можете добавлять вложения

Перейти:  
Ресурс не предоставляет электронные версии произведений, а занимается лишь коллекционированием и каталогизацией ссылок, присылаемых и публикуемых на форуме нашими читателями. Если вы являетесь правообладателем какого-либо представленного материала и не желаете чтобы ссылка на него находилась в нашем каталоге, свяжитесь с нами и мы незамедлительно удалим её. Файлы для обмена на трекере предоставлены пользователями сайта, и администрация не несёт ответственности за их содержание. Просьба не заливать файлы, защищенные авторскими правами, а также файлы нелегального содержания!
cron