На всех торрентах на трекере установлена скидка на скачивание в размере 100 процентов(а).
 Возможность скачивания торрента НЕ зависит от ограничений при низком ратио, низком аплоаде, требуемом ратио или требуемом аплоаде.


Начать новую тему Ответить на тему
Статистика раздачи
Размер: 5.74 ГБ | Добавлен: 29 апр 2015, 19:15 | Скачали: 4
Сидеров: 16  [0 байт/сек]    Личеров: 4  [0 байт/сек]
Пред. тема | След. тема 

Автор
Сообщение

СообщениеДобавлено: 29 апр 2015, 19:15 

Ответить с цитатой 

Peter Gabriel - Growing Up (Live)

Жанр: Art Rock
Продолжительность: 02:13:34
Год выпуска: 2003
Trasklist:
01. Opening
02. Here Comes the Flood
03. Darkness
04. Red Rain
05. Secret World
06. Sky Blue
07. Downside Up
08. The Barry Williams Show
09. More Than This
10. Mercy Street
11. Digging in the Dirt
12. Growing Up
13. Animal Nation
14. presentation artists - game with the audience
15. Salisbury Hill
16. Sledgehammer
17. Signal to Noise (featuring Nusrat Fateh Ali Khan)
18. In Your Eyes
19. Father Son

Personal:Peter Gabriel – lead vocals, keyboards.
Richard Evans – guitars, mandolin, whistles, backing vocals.
Melanie Gabriel – lead and backing vocals.
Tony Levin – bass, electric upright bass, backing vocals.
Ged Lynch – drums, percussions.
David Rhodes – guitars, backing vocals.
[*]Rachel Z – keyboards, backing vocals.Special Guests:The Blind Boys of Alabama – lead vocals for "Sky Blue".
[*]Sevara Nazarkhan – lead vocals.Качество: HDTVRip
Контейнер: MKV
Видео кодек: H.264
Аудио кодек: DTS
Видео: x264 1280x720 4651 Kbps 25 fps High@L4.1
Аудио: DTS 5.1 1510 Kbps 48.0 KHz 24 bits
x264 [info]: frame I:1096 Avg QP:15.27 size: 72660 PSNR Mean Y:48.49 U:49.85 V:51.02 Avg:49.00 Global:47.90
x264 [info]: frame P:51788 Avg QP:16.71 size: 39261 PSNR Mean Y:47.30 U:48.44 V:49.81 Avg:47.76 Global:46.53
x264 [info]: frame B:146646 Avg QP:18.96 size: 17233 PSNR Mean Y:46.08 U:47.56 V:49.27 Avg:46.65 Global:45.33
x264 [info]: consecutive B-frames: 1.6% 4.0% 8.2% 58.6% 17.2% 8.5% 0.9% 0.5% 0.4% 0.1%
x264 [info]: mb I I16..4: 18.5% 68.0% 13.5%
x264 [info]: mb P I16..4: 9.7% 20.1% 2.5% P16..4: 34.9% 19.1% 8.4% 0.0% 0.0% skip: 5.3%
x264 [info]: mb B I16..4: 1.6% 2.3% 0.3% B16..8: 36.0% 10.4% 2.6% direct:15.7% skip:31.1% L0:44.5% L1:43.8% BI:11.7%
x264 [info]: 8x8 transform intra:60.4% inter:68.2%
x264 [info]: coded y,uvDC,uvAC intra: 56.3% 91.4% 77.7% inter: 26.8% 48.4% 13.8%
x264 [info]: i16 v,h,dc,p: 74% 9% 6% 10%
x264 [info]: i8 v,h,dc,ddl,ddr,vr,hd,vl,hu: 9% 8% 13% 9% 12% 12% 12% 11% 13%
x264 [info]: i4 v,h,dc,ddl,ddr,vr,hd,vl,hu: 10% 11% 7% 9% 13% 12% 13% 10% 13%
x264 [info]: i8c dc,h,v,p: 47% 20% 18% 15%
x264 [info]: Weighted P-Frames: Y:17.0% UV:13.1%
x264 [info]: ref P L0: 46.9% 6.5% 17.4% 8.5% 5.9% 5.0% 3.9% 2.9% 2.4% 0.5% 0.1%
x264 [info]: ref B L0: 76.0% 11.1% 5.0% 2.6% 2.0% 1.6% 1.1% 0.5%
x264 [info]: ref B L1: 94.9% 5.1%
x264 [info]: SSIM Mean Y:0.9871360 (18.906db)
x264 [info]: PSNR Mean Y:46.409 U:47.803 V:49.422 Avg:46.949 Global:45.625 kb/s:4650.93
General
Unique ID : 62981585711507676987815938968333877316 (0x2F61CFEB7755EF836E5C2495DDFC8044)
Complete name : /mnt/data/tmp/Peter Gabriel - Growing Up [2003, Art Rock, HDTVRip 720p].mkv
Format : Matroska
File size : 5.74 GiB
Duration : 2h 13mn
Overall bit rate : 6 177 Kbps
Writing application : HandBrake rev3736
Writing library : libmkv 0.6.4.1

Video
ID : 1
Format : AVC
Format/Info : Advanced Video Codec
Format profile : High@L4.1
Format settings, CABAC : Yes
Format settings, ReFrames : 9 frames
Format settings, GOP : M=1, N=2
Codec ID : V_MPEG4/ISO/AVC
Duration : 2h 13mn
Bit rate : 4 545 Kbps
Width : 1 280 pixels
Height : 716 pixels
Display aspect ratio : 16:9
Frame rate : 25.000 fps
Color space : YUV
Chroma subsampling : 4:2:0
Bit depth : 8 bits
Scan type : Progressive
Bits/(Pixel*Frame) : 0.198
Stream size : 4.22 GiB (74%)
Writing library : x264 core 112
Encoding settings : cabac=1 / ref=9 / deblock=1:-1:-1 / analyse=0x3:0x113 / me=umh / subme=9 / psy=1 / psy_rd=1.00:0.00 / mixed_ref=1 / me_range=32 / chroma_me=1 / trellis=2 / 8x8dct=1 / cqm=0 / deadzone=21,11 / fast_pskip=1 / chroma_qp_offset=-2 / threads=6 / sliced_threads=0 / nr=0 / decimate=1 / interlaced=0 / constrained_intra=0 / bframes=9 / b_pyramid=2 / b_adapt=2 / b_bias=0 / direct=1 / weightb=1 / open_gop=0 / weightp=2 / keyint=250 / keyint_min=25 / scenecut=40 / intra_refresh=0 / rc=crf / mbtree=0 / crf=20.0 / qcomp=0.60 / qpmin=3 / qpmax=51 / qpstep=4 / ip_ratio=1.40 / pb_ratio=1.30 / aq=1:1.00
Language : English
Color primaries : BT.709-5, BT.1361, IEC 61966-2-4, SMPTE RP177
Transfer characteristics : BT.709-5, BT.1361
Matrix coefficients : BT.709-5, BT.1361, IEC 61966-2-4 709, SMPTE RP177

Audio
ID : 2
Format : DTS
Format/Info : Digital Theater Systems
Codec ID : A_DTS
Duration : 2h 13mn
Bit rate mode : Constant
Bit rate : 1 510 Kbps
Channel(s) : 6 channels
Channel positions : Front: L C R, Side: L R, LFE
Sampling rate : 48.0 KHz
Bit depth : 24 bits
Compression mode : Lossy
Stream size : 1.40 GiB (24%)
Language : English

Menu
00:00:00.000 : Peter Gabriel - Opening
00:01:30.880 : Peter Gabriel - Here Comes the Flood
00:05:49.920 : Peter Gabriel - Darkness
00:12:44.960 : Peter Gabriel - Red Rain
00:19:00.000 : Peter Gabriel - Secret World
00:28:08.960 : Peter Gabriel - Sky Blue
00:36:24.960 : Peter Gabriel - Downside Up
00:41:58.880 : Peter Gabriel - The Barry Williams Show
00:52:32.000 : Peter Gabriel - More Than This
00:59:48.000 : Peter Gabriel - Mercy Street
01:06:36.960 : Peter Gabriel - Digging in the Dirt
01:12:56.960 : Peter Gabriel - Growing Up
01:21:48.960 : Peter Gabriel - Animal Nation
01:30:38.880 : Peter Gabriel - Performance artists - game with the audience
01:36:30.880 : Peter Gabriel - Solsbury Hill
01:40:54.880 : Peter Gabriel - Sledgehammer
01:47:04.960 : Peter Gabriel - Signal to Noise (featuring Nusrat Fateh Ali Khan)
01:55:06.880 : Peter Gabriel - In Your Eyes
02:06:05.920 : Peter Gabriel - Father Son
загрузка...
Правила, инструкции, FAQ!!!
Торрент  Добавлен [29 апр 2015, 19:15] Скачать торрент Магнет ссылка
Скачать торрент
[ Размер 115.3 КБ / Просмотров 58 ]

Статус
Проверен 
 
Размер  5.74 ГБ
Приватный: Нет (DHT включён)
.torrent скачан  4
Как залить торрент? | Как скачать Torrent? | Ошибка в торренте? Качайте магнет  


     Отправить личное сообщение
   
Страница 1 из 1
Показать сообщения за:  Поле сортировки  
Начать новую тему Ответить на тему

   Похожие торренты   Автор   Ответы   Просмотры   Последнее сообщение 
В этой теме нет новых непрочитанных сообщений. Скачать торрент Проверен Peter Gabriel - Growing Up (Live) [2003, Rock, HDTVRip]

в форуме Концерты (HD-Video), Размер: 4.16 ГБ, Здоровье: 100%

Anonymous

0
7|1

35
0

23 окт 2016, 14:31

Anonymous Перейти к последнему сообщению

В этой теме нет новых непрочитанных сообщений. Скачать торрент Проверен Peter Gabriel - Growing up (Live) [2003, Rock, HDTV] 1080i

в форуме Концерты (HD-Video), Размер: 3.67 ГБ, Здоровье: 100%

Anonymous

0
8|2

48
0

23 окт 2016, 15:35

Anonymous Перейти к последнему сообщению

В этой теме нет новых непрочитанных сообщений. Скачать торрент Проверен Peter Gabriel - Growing Up (Live) [2003, Rock, HDTV 1080i]

в форуме Концерты (HD-Video), Размер: 14.24 ГБ, Здоровье: 1%

Anonymous

0
3|240

77
0

23 окт 2016, 15:17

Anonymous Перейти к последнему сообщению

В этой теме нет новых непрочитанных сообщений. Скачать торрент Проверен (Progressive & Art-Rock) Peter Gabriel - Growing Up (bootleg) (2CD) - 2004, FLAC (tracks+.cue), lossless

в форуме Progressive & Art-Rock, Размер: 854.65 МБ, Здоровье: 4%

Anonymous

0
5|110

5
1

30 авг 2016, 18:06

Anonymous Перейти к последнему сообщению

В этой теме нет новых непрочитанных сообщений. Скачать торрент Peter Gabriel - Live In Athens 1987 (2013) BDRip 720p

в форуме Концерты (HD-Video), Размер: 8 ГБ, Здоровье: 100%

Anonymous

0
6|4

104
15

23 янв 2014, 20:08

Anonymous Перейти к последнему сообщению



Сейчас этот форум просматривают: нет зарегистрированных пользователей и гости: 1


Вы не можете начинать темы
Вы не можете отвечать на сообщения
Вы не можете редактировать свои сообщения
Вы не можете удалять свои сообщения
Вы не можете добавлять вложения

Перейти:  
Ресурс не предоставляет электронные версии произведений, а занимается лишь коллекционированием и каталогизацией ссылок, присылаемых и публикуемых на форуме нашими читателями. Если вы являетесь правообладателем какого-либо представленного материала и не желаете чтобы ссылка на него находилась в нашем каталоге, свяжитесь с нами и мы незамедлительно удалим её. Файлы для обмена на трекере предоставлены пользователями сайта, и администрация не несёт ответственности за их содержание. Просьба не заливать файлы, защищенные авторскими правами, а также файлы нелегального содержания!
cron