На всех торрентах на трекере установлена скидка на скачивание в размере 100 процентов(а).
 Возможность скачивания торрента НЕ зависит от ограничений при низком ратио, низком аплоаде, требуемом ратио или требуемом аплоаде.


Начать новую тему Ответить на тему
Статистика раздачи
Размер: 1.45 ГБ | Добавлен: 03 фев 2018, 18:34 | Скачали: 0
Сидеров: 0  [0 байт/сек]    Личеров: 0  [0 байт/сек]
Пред. тема | След. тема 

Автор
Сообщение

СообщениеДобавлено: 03 фев 2018, 18:34 

Ответить с цитатой 


Первое убийство / First Kill


Страна: США
Жанр: боевик, триллер
Год выпуска: 2017
Продолжительность: 01:41:42
Перевод: Одноголосый закадровый BadBajo
Субтитры: нет
Оригинальная аудиодорожка: нет
Режиссер: Стивен С. Миллер / Steven C. Miller
В ролях: Брюс Уиллис, Хейден Кристенсен, Гетин Энтони, Маги Авила, Шарлотта Кирк, Уильям ДеМео, Тамара Белоус, Хезер Йохансен, Тайлер Джон Олсон
Описание: Фильм об опытном офицере, который расследует похищение мальчика, ставшего свидетелем разборки между банковскими грабителями. Вызволить ребенка так же торопится его молодой отец, вызывающий у полицейского серьезные подозрения — а не был ли он сам связан с этим ограблением?


Качество видео: WEB-DLRip-AVC / First.Kill.2017.720p.WEB-DL.DD5.1
Формат видео: MKV
Видео: MPEG-4 AVC, 1024x424 (2.40:1), 23.976 fps, ~1660 kbps avg, 0.159 bit/pixel
Аудио: 48 kHz, AC3 Dolby Digital, 3/2 (L,C,R,l,r) + LFE ch, ~384 kbps avg
Complete name : D:\Раздачи\Первое убийство (2017) WEB-DLRip-AVC_ivanes20031987.mkv
Format : Matroska
Format version : Version 2
File size : 1.45 GiB
Duration : 1 h 41 min
Overall bit rate : 2 044 kb/s
Encoded date : UTC 2017-07-22 18:41:10
Writing application : mkvmerge v4.8.0 ('I Got The...') сборка от May 24 2011 03:12:58
Writing library : libebml v1.2.0 + libmatroska v1.1.0
Video
ID : 1
Format : AVC
Format/Info : Advanced Video Codec
Format profile : High@L4.1
Format settings, CABAC : Yes
Format settings, RefFrames : 11 frames
Codec ID : V_MPEG4/ISO/AVC
Duration : 1 h 41 min
Bit rate : 1 660 kb/s
Width : 1 024 pixels
Height : 424 pixels
Display aspect ratio : 2.40:1
Frame rate mode : Constant
Frame rate : 23.976 (24000/1001) FPS
Color space : YUV
Chroma subsampling : 4:2:0
Bit depth : 8 bits
Scan type : Progressive
Bits/(Pixel*Frame) : 0.159
Stream size : 1.15 GiB (79%)
Writing library : x264 core 150 r2833kMod df79067
Encoding settings : cabac=1 / ref=11 / deblock=1:-2:-2 / analyse=0x3:0x113 / me=umh / subme=10 / psy=1 / fade_compensate=0.00 / psy_rd=1.00:0.00 / mixed_ref=1 / me_range=32 / chroma_me=1 / trellis=2 / 8x8dct=1 / cqm=0 / deadzone=21,11 / fast_pskip=0 / chroma_qp_offset=-2 / threads=13 / lookahead_threads=1 / sliced_threads=0 / nr=0 / decimate=0 / interlaced=0 / bluray_compat=0 / constrained_intra=0 / bframes=11 / b_pyramid=2 / b_adapt=1 / b_bias=0 / direct=3 / weightb=0 / open_gop=0 / weightp=2 / keyint=240 / keyint_min=23 / scenecut=40 / intra_refresh=0 / rc_lookahead=60 / rc=2pass / mbtree=0 / bitrate=1660 / ratetol=1.0 / qcomp=0.60 / qpmin=0 / qpmax=69 / qpstep=4 / cplxblur=20.0 / qblur=0.5 / vbv_maxrate=50000 / vbv_bufsize=62500 / nal_hrd=none / filler=0 / ip_ratio=1.40 / pb_ratio=1.30 / aq=1:1.00
Default : Yes
Forced : No
Audio
ID : 2
Format : AC-3
Format/Info : Audio Coding 3
Format settings, Endianness : Big
Codec ID : A_AC3
Duration : 1 h 41 min
Bit rate mode : Constant
Bit rate : 384 kb/s
Channel(s) : 6 channels
Channel positions : Front: L C R, Side: L R, LFE
Sampling rate : 48.0 kHz
Frame rate : 31.250 FPS (1536 SPF)
Bit depth : 16 bits
Compression mode : Lossy
Stream size : 279 MiB (19%)
Title : BadBajo
Language : Russian
Service kind : Complete Main
Default : Yes
Forced : No
x264 [info]: frame I:2331 Avg QP:15.04 size: 45260
x264 [info]: frame P:35401 Avg QP:18.23 size: 17456
x264 [info]: frame B:108574 Avg QP:19.44 size: 4990
Правила, инструкции, FAQ!!!
Торрент  Добавлен [03 фев 2018, 18:34] Скачать торрент Магнет ссылка
Скачать торрент
[ Размер 15.02 КБ / Просмотров 8 ]

Статус
Проверен 
 
Размер  1.45 ГБ
Приватный: Нет (DHT включён)
.torrent скачан  0
Как залить торрент? | Как скачать Torrent? | Ошибка в торренте? Качайте магнет  
загрузка...


     Отправить личное сообщение
   
Страница 1 из 1
Показать сообщения за:  Поле сортировки  
Начать новую тему Ответить на тему

   Похожие торренты   Автор   Ответы   Просмотры   Последнее сообщение 
В этой теме нет новых непрочитанных сообщений. Скачать торрент Проверен Первое убийство / First Kill (Стивен С. Миллер / Steven C. Miller) [2017, США, боевик, триллер, WEB-DLRip] VO (BadBajo)

в форуме Фильмы 2016-2017, Размер: 1.46 ГБ, Здоровье: 0%

Anonymous

0
0|0

2
0

03 фев 2018, 18:56

Anonymous Перейти к последнему сообщению

В этой теме нет новых непрочитанных сообщений. Скачать торрент Проверен Первое убийство / First Kill (Стивен С. Миллер / Steven C. Miller) [2017, США, боевик, триллер, WEB-DLRip] VO (BadBajo)

в форуме Фильмы 2016-2017, Размер: 743.98 МБ, Здоровье: 0%

Anonymous

0
0|0

0
0

03 фев 2018, 19:14

Anonymous Перейти к последнему сообщению

В этой теме нет новых непрочитанных сообщений. Скачать торрент Проверен Первое убийство / First Kill (Стивен С. Миллер / Steven C. Miller) [2017, США, боевик, триллер, HDRip] MVO (Paradox&Omskbird)

в форуме Фильмы 2016-2017, Размер: 1.39 ГБ, Здоровье: 0%

Anonymous

0
0|0

3
0

03 фев 2018, 19:10

Anonymous Перейти к последнему сообщению

В этой теме нет новых непрочитанных сообщений. Скачать торрент Проверен Арсенал / Arsenal (Стивен С. Миллер / Steven C. Miller) [2017, США, триллер, BDRip-AVC] MVO

в форуме Фильмы 2016-2017, Размер: 746.57 МБ, Здоровье: 100%

Anonymous

0
6|2

3
0

03 фев 2018, 18:34

Anonymous Перейти к последнему сообщению

В этой теме нет новых непрочитанных сообщений. Скачать торрент Проверен Арсенал / Arsenal (Стивен С. Миллер / Steven C. Miller) [2017, США, триллер, BDRip-AVC] MVO

в форуме Фильмы 2016-2017, Размер: 1.46 ГБ, Здоровье: 100%

Anonymous

0
11|4

10
0

03 фев 2018, 19:45

Anonymous Перейти к последнему сообщению



Сейчас этот форум просматривают: нет зарегистрированных пользователей и гости: 2


Вы не можете начинать темы
Вы не можете отвечать на сообщения
Вы не можете редактировать свои сообщения
Вы не можете удалять свои сообщения
Вы не можете добавлять вложения

Перейти:  
Ресурс не предоставляет электронные версии произведений, а занимается лишь коллекционированием и каталогизацией ссылок, присылаемых и публикуемых на форуме нашими читателями. Если вы являетесь правообладателем какого-либо представленного материала и не желаете чтобы ссылка на него находилась в нашем каталоге, свяжитесь с нами и мы незамедлительно удалим её. Файлы для обмена на трекере предоставлены пользователями сайта, и администрация не несёт ответственности за их содержание. Просьба не заливать файлы, защищенные авторскими правами, а также файлы нелегального содержания!
cron