На всех торрентах на трекере установлена скидка на скачивание в размере 100 процентов(а).
 Возможность скачивания торрента НЕ зависит от ограничений при низком ратио, низком аплоаде, требуемом ратио или требуемом аплоаде.


Начать новую тему Ответить на тему
Статистика раздачи
Размер: 1.46 ГБ | Добавлен: 17 фев 2014, 11:47 | Скачали: 0
Сидеров: 0  [0 байт/сек]    Личеров: 0  [0 байт/сек]
Пред. тема | След. тема 

Автор
Сообщение

СообщениеДобавлено: 17 фев 2014, 11:47 

Ответить с цитатой 

Палата / The Ward
«Only Sanity Can Keep You Alive»

Страна: США / Echo Lake Productions, FilmNation Entertainment
Жанр: ужасы, триллер
Год выпуска: 2010
Продолжительность: 01:28:55

Перевод: Профессиональный (дублированный) лицензия R5
Cубтитры: нет
Режиссер: Джон Карпентер / John Carpenter

В ролях: Эмбер Хёрд, Мэми Гаммер, Даниэль Панабэйкер, Лора Ли, Линдси Фонсека, Джаред Харрис, Сали Сейлер, Сузанна Берни, Дэн Андерсон, Шон Кук, Джилиан Крамер, Марк Чамберлен.

Описание: Кристен проходит лечение в психиатрической лечебнице. Вместе с ней проходят лечение еще четыре девушки. По ночам, когда больница погружается во тьму, она слышит странные пугающие звуки и понимает, что они тут не одни. Одна за другой девушки начинают исчезать, и Кристен понимает, что должна как можно скорее выбраться отсюда. Пытаясь сбежать, она понимает, что истинная природа звуков намного ужаснее, чем могло показаться вначале.




MPAA: R - лицам до 17 лет обязательно присутствие взрослого
Сэмпл: http://multi-up.com/832854
Качество видео: BDRip
Формат видео: AVI

Видео: XviD build 65, 720x304 (2.37:1), 23.976 fps, ~1896 kbps avg, 0.361 bit/pixel
Аудио: 48 kHz, AC3 Dolby Digital, 3/2 (L,C,R,l,r) + LFE ch, ~448 kbps avg (DUB)

MediaInfo
General
Complete name : D\The.Ward.2010.Dub.BDRip.1,46Gb.XviD.AC3.avi
Format : AVI
Format/Info : Audio Video Interleave
File size : 1.46 GiB
Duration : 1h 28mn
Overall bit rate : 2 353 Kbps
Writing application : VirtualDubModRus 1.5.10.2 (build 2542/release)
Writing library : VirtualDubMod build 2542/release

Video
ID : 0
Format : MPEG-4 Visual
Format profile : Advanced Simple@L5
Format settings, BVOP : 1
Format settings, QPel : No
Format settings, GMC : No warppoints
Format settings, Matrix : Custom
Codec ID : XVID
Codec ID/Hint : XviD
Duration : 1h 28mn
Bit rate : 1 896 Kbps
Width : 720 pixels
Height : 304 pixels
Display aspect ratio : 2.35:1
Frame rate : 23.976 fps
Color space : YUV
Chroma subsampling : 4:2:0
Bit depth : 8 bits
Scan type : Progressive
Compression mode : Lossy
Bits/(Pixel*Frame) : 0.361
Stream size : 1.18 GiB (81%)
Writing library : XviD 65

Audio
ID : 1
Format : AC-3
Format/Info : Audio Coding 3
Mode extension : CM (complete main)
Format settings, Endianness : Big
Codec ID : 2000
Duration : 1h 28mn
Bit rate mode : Constant
Bit rate : 448 Kbps
Channel(s) : 6 channels
Channel positions : Front: L C R, Side: L R, LFE
Sampling rate : 48.0 KHz
Bit depth : 16 bits
Compression mode : Lossy
Stream size : 285 MiB (19%)
Alignment : Split accross interleaves
Interleave, duration : 42 ms (1.00 video frame)
Interleave, preload duration : 500 ms
Title : DUB

загрузка...
Правила, инструкции, FAQ!!!
Торрент  Добавлен [17 фев 2014, 11:47] Скачать торрент
Скачать торрент
[ Размер 15.12 КБ / Просмотров 9 ]

Статус  
 
Размер  1.46 ГБ
Приватный: Нет (DHT включён)
.torrent скачан  0
Как залить торрент? | Как скачать Torrent? | Как смотреть и слушать онлайн?  


     Отправить личное сообщение
   
Страница 1 из 1
Показать сообщения за:  Поле сортировки  
Начать новую тему Ответить на тему

   Похожие торренты   Автор   Ответы   Просмотры   Последнее сообщение 
В этой теме нет новых непрочитанных сообщений. Скачать торрент Проверен 9 Улик: Палата Ужасов / 9 Clues: The Ward (2014) PС

в форуме Приключения и квесты|я ищу, Размер: 999.7 МБ, Здоровье: 100%

Гость

0
910|174

41
558

09 янв 2015, 00:45

Гость Перейти к последнему сообщению

В этой теме нет новых непрочитанных сообщений. Скачать торрент Проверен [Английский] John le Carré / Джон Ле Карре́ - John le Carré - The Night Manager / Джон Ле Карре - Ночной администратор [Michael Jayston / Майкл Джейстон, 1994, Политический триллер, 96 kbps]

в форуме Аудиокниги (AAC, ALAC), Размер: 651.67 МБ, Здоровье: 100%

Anonymous

0
1|0

34
0

28 авг 2016, 16:36

Anonymous Перейти к последнему сообщению

В этой теме нет новых непрочитанных сообщений. Скачать торрент Проверен Дом большой мамочки 2 / Big Momma's House 2 (Джон Уайтселл / John Whitesell) [2006, боевик, триллер, комедия BDRip, 480p] DUB, Original + sub (rus, eng)

в форуме Фильмы для iPod, iPhone, iPad, Размер: 1.43 ГБ, Здоровье: 100%

Гость

0
25|8

57
0

12 май 2015, 00:07

Гость Перейти к последнему сообщению

В этой теме нет новых непрочитанных сообщений. Скачать торрент Проверен [iPad] Джеймс Бонд 007: Вид на убийство / James Bond 007: A View to a Kill (Джон Глен / John Glen) [1985, США, Великобритания, Боевик, триллер, приключения, BDRip] DUB, Original (Eng), Sub (Rus, Eng)

в форуме Фильмы для iPod, iPhone, iPad, Размер: 3.14 ГБ, Здоровье: 75%

Anonymous

0
3|4

63
0

14 май 2015, 00:01

Anonymous Перейти к последнему сообщению

В этой теме нет новых непрочитанных сообщений. Скачать торрент Проверен Человек-волк / The Wolfman (Джо Джонстон / Joe Johnston) [2010, США, ужасы, триллер, драма, BDRip, 480p] Dub + Original + sub (rus, eng)

в форуме Фильмы для iPod, iPhone, iPad, Размер: 1.72 ГБ, Здоровье: 100%

Anonymous

0
5|1

63
0

12 май 2015, 00:11

Anonymous Перейти к последнему сообщению



Сейчас этот форум просматривают: нет зарегистрированных пользователей и гости: 1


Вы не можете начинать темы
Вы не можете отвечать на сообщения
Вы не можете редактировать свои сообщения
Вы не можете удалять свои сообщения
Вы не можете добавлять вложения

Перейти:  

!ВНИМАНИЕ!
 Ресурс не предоставляет электронные версии произведений, а занимается лишь коллекционированием и каталогизацией ссылок, присылаемых и публикуемых на форуме нашими читателями. Если вы являетесь правообладателем какого-либо представленного материала и не желаете чтобы ссылка на него находилась в нашем каталоге, свяжитесь с нами и мы незамедлительно удалим её. Файлы для обмена на трекере предоставлены пользователями сайта, и администрация не несёт ответственности за их содержание. Просьба не заливать файлы, защищенные авторскими правами, а также файлы нелегального содержания!