На всех торрентах на трекере установлена скидка на скачивание в размере 100 процентов(а).
 Возможность скачивания торрента НЕ зависит от ограничений при низком ратио, низком аплоаде, требуемом ратио или требуемом аплоаде.


Начать новую тему Ответить на тему
Статистика раздачи
Размер: 4.97 ГБ | Добавлен: 21 окт 2014, 20:58 | Скачали: 2
Сидеров: 82  [0 байт/сек]    Личеров: 25  [0 байт/сек]
Пред. тема | След. тема 

Автор
Сообщение

СообщениеДобавлено: 21 окт 2014, 20:58 

Ответить с цитатой 

Отец солдата

Жанр: драма, военный
Год выпуска: 1964
Продолжительность: 01:26:36

Режиссёр: Резо Чхеидзе
В ролях: Серго Закариадзе, Владимир Привальцев, Александр Назаров, Александр Лебедев, Владимир Колокольцев, Юра Дроздов, Иван Косых, Виктор Косых, Виктор Уральский, Кетеван (Кето) Бочоришвили, Владимир Пицек, Петр Любешкин, Татьяна Решетникова, Николай Бармин, Инна Выходцева, Ромуальд (Роман) Вильдан, Бондо Гогинава, Вячеслав Жариков, Валентин Кулик, Гия Кобахидзе, Ираклий Кокрашвили, Жана Квитайшвили, Елена Максимова, Раднэр Муратов, Виктор Мизин, Ираклий Нижарадзе, Феликс Степун, Нуну Мачавариани, Валентин Донгузашвили
Описание: Старый крестьянин-виноградарь из Грузии Георгий Махарашвили едет повидаться с сыном, который ранен и находится в госпитале. Но пока отец добирается до места назначения, сын снова отправляется на фронт. Однако, Георгий уже не может вернуться в родную деревню. Он вместе с советской армией проходит весь ее путь - до Берлина, до Победы. И только в последние дни войны находит сына...

Качество видео: HDTV 1080i
Формат видео: TS

Видео: AVC H.264, 1920x1080 (16:9) 25 fps , 7417 Kbps
Аудио: AC3, 48 kHz, 2 ch, 384 kbps
Телетекст: русский (в виде субтитров)
General #1
ID : 1 (0x1)
Complete name : Отец солдата - (в цвете)_HDTV by Kaddafi.ts
Format : MPEG-TS
File size : 4.97 GiB
Duration : 1h 26mn
Overall bit rate mode : Variable
Overall bit rate : 8 211 Kbps
Video #305
ID : 305 (0x131)
Menu ID : 1 (0x1)
Format : AVC
Format/Info : Advanced Video Codec
Format profile : High@L4.0
Format settings, CABAC : Yes
Format settings, ReFrames : 3 frames
Codec ID : 27
Duration : 1h 26mn
Bit rate : 7 417 Kbps
Width : 1 920 pixels
Height : 1 080 pixels
Display aspect ratio : 16:9
Frame rate : 25.000 fps
Standard : Component
Color space : YUV
Chroma subsampling : 4:2:0
Bit depth : 8 bits
Scan type : Interlaced
Scan order : Top Field First
Bits/(Pixel*Frame) : 0.143
Stream size : 4.49 GiB (90%)
Color primaries : BT.709
Transfer characteristics : BT.709
Matrix coefficients : BT.709
Audio #415
ID : 415 (0x19F)
Menu ID : 1 (0x1)
Format : AC-3
Format/Info : Audio Coding 3
Mode extension : CM (complete main)
Format settings, Endianness : Big
Codec ID : 6
Duration : 1h 26mn
Bit rate mode : Constant
Bit rate : 384 Kbps
Channel(s) : 2 channels
Channel positions : Front: L R
Sampling rate : 48.0 KHz
Bit depth : 16 bits
Compression mode : Lossy
Stream size : 238 MiB (5%)
Language : Russian
Text #505-888
ID : 505 (0x1F9)-888
Menu ID : 1 (0x1)
Format : Teletext Subtitle
Language : Russian
загрузка...
Правила, инструкции, FAQ!!!
Торрент  Добавлен [21 окт 2014, 20:58] Скачать торрент Магнет ссылка
Скачать торрент
[ Размер 12.93 КБ / Просмотров 28 ]

Статус
Проверен 
 
Размер  4.97 ГБ
Приватный: Нет (DHT включён)
.torrent скачан  2
Как залить торрент? | Как скачать Torrent? | Ошибка в торренте? Качайте магнет  


     Отправить личное сообщение
   
Страница 1 из 1
Показать сообщения за:  Поле сортировки  
Начать новую тему Ответить на тему

   Похожие торренты   Автор   Ответы   Просмотры   Последнее сообщение 
В этой теме нет новых непрочитанных сообщений. Скачать торрент Проверен Отец солдата (1964) HDTVRip [в цвете]

в форуме Военные, Размер: 1.46 ГБ, Здоровье: 100%

Anonymous

0
22|7

189
2

05 июл 2014, 23:47

Anonymous Перейти к последнему сообщению

В этой теме нет новых непрочитанных сообщений. Скачать торрент Звезда солдата / Étoile du soldat, L' / L'Etoile du soldat (Кристоф де Понфилли / Kristof de Ponfilli) [2006 г., Военный фильм, драма, DVDRip]

в форуме Военные, Размер: 698.71 МБ, Здоровье: 100%

Anonymous

0
240|23

1714
67

16 фев 2014, 13:07

Anonymous Перейти к последнему сообщению

В этой теме нет новых непрочитанных сообщений. Скачать торрент Проверен Swinging UK and UK Swings Again [1964, pop-rock, HDTV 1080i]

в форуме Концерты (HD-Video), Размер: 6.21 ГБ, Здоровье: 100%

Anonymous

0
4|1

33
1

23 окт 2016, 12:28

Anonymous Перейти к последнему сообщению

В этой теме нет новых непрочитанных сообщений. Скачать торрент Проверен The Beatles - видеоклипы [1964-1970, Rock, HDTV 1080i]

в форуме Концерты (HD-Video), Размер: 3.86 ГБ, Здоровье: 100%

Anonymous

0
42|8

430
20

23 окт 2016, 16:33

Anonymous Перейти к последнему сообщению

В этой теме нет новых непрочитанных сообщений. Скачать торрент Проверен Дурак (Юрий Быков) [2014, Россия, драма, HDTV 1080i]

в форуме Наше кино (HD Video), Размер: 7.91 ГБ, Здоровье: 100%

Anonymous

0
85|28

115
3

12 апр 2015, 10:59

Anonymous Перейти к последнему сообщению



Сейчас этот форум просматривают: нет зарегистрированных пользователей и гости: 0


Вы не можете начинать темы
Вы не можете отвечать на сообщения
Вы не можете редактировать свои сообщения
Вы не можете удалять свои сообщения
Вы не можете добавлять вложения

Перейти:  
Ресурс не предоставляет электронные версии произведений, а занимается лишь коллекционированием и каталогизацией ссылок, присылаемых и публикуемых на форуме нашими читателями. Если вы являетесь правообладателем какого-либо представленного материала и не желаете чтобы ссылка на него находилась в нашем каталоге, свяжитесь с нами и мы незамедлительно удалим её. Файлы для обмена на трекере предоставлены пользователями сайта, и администрация не несёт ответственности за их содержание. Просьба не заливать файлы, защищенные авторскими правами, а также файлы нелегального содержания!
cron