На всех торрентах на трекере установлена скидка на скачивание в размере 100 процентов(а).
 Возможность скачивания торрента НЕ зависит от ограничений при низком ратио, низком аплоаде, требуемом ратио или требуемом аплоаде.


Начать новую тему Ответить на тему
Статистика раздачи
Размер: 1.46 ГБ | Добавлен: 25 июл 2015, 23:05 | Скачали: 102
Сидеров: 97  [0 байт/сек]    Личеров: 33  [0 байт/сек]
Пред. тема | След. тема 

Автор
Сообщение

СообщениеДобавлено: 25 июл 2015, 23:05 

Ответить с цитатой 

Название: Остров сокровищ
Оригинальное название: Treasure Island
Год выхода: 1990
Жанр: приключения
Режиссер: Фрейзер Кларк Хестон / Fraser Clarke Heston
В ролях: Чарлтон Хестон, Кристиан Бэйл, Оливер Рид, Кристофер Ли, Ричард Джонсон, Джулиан Гловер, Айла Блэр, Клив Вуд, Николас Амер, Джон Эбботт, Джеймс Койл, Майкл Халсли, Майкл Тома, Пит Постлетуэйт, Роберт Патт, Бретт Фэнси, Джон Бенфилд, Ричард Бил, Стивен Макинтош, Джеймс Космо, Билл Слоун, Дэвид Спид

О фильме:
Экранизация всемирно известного романа шотландского писателя Роберта Льюиса Стивенсона. Совершенно случайно в руки смелого Джима Хокинса попадает старинная морская карта, которая оказывается картой самого легендарного капитана Флинта. На ней указаны координаты острова в Атлантическом океане, где спрятаны сокровища знаменитого пирата. Вместе с бесстрашными друзьями, доктором Ливси и сквайром Трелони, на шхуне «Испаньола» Джим отправляется в опасное плавание к далекому острову. Но случилось так, что на этом же судне в плавание отправились и пираты — бывшие члены команды капитана Флинта. Во главе шайки стоит Джон Сильвер - коварный и кровожадный пират, который прикинулся скромным корабельным коком...


Страна: США, Великобритания
Продолжительность: 02:11:17
Перевод: Профессиональный (дублированный) Варус Видео


Кодек: XviD
Качество: WEB-DLRip
Видео: 688x384, 23,976 fps, 1394 kbps
Звук: AC3, 48 kHz, 2ch, 192 kbps
Общее
Полное имя : Treasure.Island.by_rohh.1990.WEB-DLRip.avi
Формат : AVI
Формат/Информация : Audio Video Interleave
Размер файла : 1,46 Гбайт
Продолжительность : 2 ч. 11 м.
Общий поток : 1595 Кбит/сек
Программа кодирования : VirtualDubMod 1.5.10.2 (build 2542/release)
Библиотека кодирования : VirtualDubMod build 2542/release

Видео
Идентификатор : 0
Формат : MPEG-4 Visual
Профиль формата : Advanced Simple@L5
Параметр BVOP формата : 2
Параметр QPel формата : Нет
Параметр GMC формата : Без точки перехода
Параметр матрицы формата : Выборочная
Идентификатор кодека : XVID
Идентификатор кодека/Подсказка : XviD
Продолжительность : 2 ч. 11 м.
Битрейт : 1394 Кбит/сек
Ширина : 688 пикс.
Высота : 384 пикс.
Соотношение сторон : 16:9
Частота кадров : 23,976 кадр/сек
Цветовое пространство : YUV
Подвыборка цветности : 4:2:0
Битовая глубина : 8 бит
Тип развёртки : Прогрессивная
Метод сжатия : С потерями
Бит/(Пиксели*Кадры) : 0.220
Размер потока : 1,28 Гбайт (87%)
Библиотека кодирования : XviD 73

Аудио
Идентификатор : 1
Формат : AC-3
Формат/Информация : Audio Coding 3
Расширение режима : CM (complete main)
Идентификатор кодека : 2000
Продолжительность : 2 ч. 11 м.
Вид битрейта : Постоянный
Битрейт : 192 Кбит/сек
Канал(ы) : 2 канала(ов)
Расположение каналов : Front: L R
Частота : 48,0 КГц
Битовая глубина : 16 бит
Метод сжатия : С потерями
Размер потока : 180 Мбайт (12%)
Выравнивание : Разделение по промежуткам
Продолжительность промежутка : 42 мс. (1,00 видеокадр)
Время предзагрузки промежутка : 500 ms


Релиз от: Leon-masl
загрузка...
Правила, инструкции, FAQ!!!
Торрент  Добавлен [25 июл 2015, 23:05] Скачать торрент Магнет ссылка
Скачать торрент
[ Размер 15.55 КБ / Просмотров 29 ]

Статус
Проверен 
 
Размер  1.46 ГБ
Приватный: Нет (DHT включён)
.torrent скачан  102
Как залить торрент? | Как скачать Torrent? | Как смотреть и слушать онлайн?  


     Отправить личное сообщение
   
Страница 1 из 1
Показать сообщения за:  Поле сортировки  
Начать новую тему Ответить на тему

   Похожие торренты   Автор   Ответы   Просмотры   Последнее сообщение 
В этой теме нет новых непрочитанных сообщений. Скачать торрент Проверен Остров сокровищ / Treasure Island (1990) WEB-DL 720p | D, P, A

в форуме 720p | 1080p, Размер: 4.79 ГБ, Здоровье: 100%

Гость

0
182|89

127
203

25 июл 2015, 23:01

Гость Перейти к последнему сообщению

В этой теме нет новых непрочитанных сообщений. Скачать торрент Проверен [Адаптированная литература, level 2] Stevenson R.L. / Стивенсон Р.Л. - Treasure Island / Остров сокровищ [2012, PDF/djvu, MP3, ENG]

в форуме Английский язык (для взрослых), Размер: 57.84 МБ, Здоровье: 100%

Anonymous

0
6|2

46
1

28 фев 2017, 19:29

Anonymous Перейти к последнему сообщению

В этой теме нет новых непрочитанных сообщений. Скачать торрент Проверен Stevenson Robert Lois / Стивенсон Роберт Луис - Игорь Тарасов - Treasure Island / Остров сокровищ [1993, PDF, WMA, ENG]

в форуме Английский язык (для взрослых), Размер: 852.97 МБ, Здоровье: 100%

Anonymous

0
1|0

32
1

28 фев 2017, 20:28

Anonymous Перейти к последнему сообщению

В этой теме нет новых непрочитанных сообщений. Скачать торрент Проверен Остров сокровищ (Евгений Фридман) [1971, Приключения, DVDRip-AVC]

в форуме Детское, Семейное кино, Размер: 1.45 ГБ, Здоровье: 100%

Anonymous

0
55|12

108
4

11 апр 2016, 23:42

Anonymous Перейти к последнему сообщению

В этой теме нет новых непрочитанных сообщений. Скачать торрент Проверен Остров сокровищ (Владимир Воробьёв) [1982, детский, DVDRip-AVC]

в форуме Детское, Семейное кино, Размер: 2.13 ГБ, Здоровье: 100%

Гость

0
28|9

103
0

11 апр 2016, 23:42

Гость Перейти к последнему сообщению



Сейчас этот форум просматривают: нет зарегистрированных пользователей и гости: 0


Вы не можете начинать темы
Вы не можете отвечать на сообщения
Вы не можете редактировать свои сообщения
Вы не можете удалять свои сообщения
Вы не можете добавлять вложения


!ВНИМАНИЕ!
 Ресурс не предоставляет электронные версии произведений, а занимается лишь коллекционированием и каталогизацией ссылок, присылаемых и публикуемых на форуме нашими читателями. Если вы являетесь правообладателем какого-либо представленного материала и не желаете чтобы ссылка на него находилась в нашем каталоге, свяжитесь с нами и мы незамедлительно удалим её. Файлы для обмена на трекере предоставлены пользователями сайта, и администрация не несёт ответственности за их содержание. Просьба не заливать файлы, защищенные авторскими правами, а также файлы нелегального содержания!