На всех торрентах на трекере установлена скидка на скачивание в размере 100 процентов(а).
 Возможность скачивания торрента НЕ зависит от ограничений при низком ратио, низком аплоаде, требуемом ратио или требуемом аплоаде.


Начать новую тему Ответить на тему
Статистика раздачи
Размер: 1.46 ГБ | Добавлен: 10 дек 2016, 12:48 | Скачали: 2
Сидеров: 36  [0 байт/сек]    Личеров: 12  [0 байт/сек]
Пред. тема | След. тема 

Автор
Сообщение

СообщениеДобавлено: 10 дек 2016, 12:48 

Осада Жадовиля / The Siege of Jadotville

Год выхода: 2016
Выпущено: Ирландия, ЮАР / Parallel Films
Жанр: триллер, драма
Продолжительность: 01:48:26
Перевод: Любительский (многоголосый закадровый) Синема УС
Субтитры: нет
Режиссер:
Кортни Хант / Courtney Hunt
В ролях:
Джейми Дорнан (Pat Quinlan), Марк Стронг (Conor Cruise O'Brien), Гийом Кане (Falquez), Микаэл Персбрандт (Dag Hammarskjold), Джейсон О’Мара (Sgt. Jack Prendergast), Эмманюэль Сенье (Madame LaFontagne), Майкл МакЭлхаттон (McEntee), Сэм Кили (Bill), Дэнни Сапани (Moise Tshombe), Эми Луиз Уилсон (Carmel Quinlan)
О фильме:
Фильм расскажет о политическом кризисе в Конго, который охватил страну после провозглашения независимости в 1960 году от Бельгии. Долгое время эта африканская страна была колонией и управлялась из Европы, и как только конголезцам дали волю, они устроили у себя на родине дележ власти, переросший в гражданскую войну. В итоге, в 1960 году туда ввели миротворческую миссию ООН, а все бельгийские силы попросили удалиться. Удалились далеко не все, и в 1961 году ирландский батальон, насчитывавший 150 бойцов, попал в осаду трех тысяч французских и бельгийских наемников, работавших на горнодобывающую компанию.
Релиз групп |
| IMDB | КиноПоиск | Сэмпл |
Качество: WEBRip [The Siege of Jadotville 2016 1080p WEBRip DD5 1 x264-SH0W ]
Формат: AVI

Видео: 720x304 (2.37:1), 23.976 fps, XviD build 67 ~1536 kbps avg, 0.29 bit/pixel
Аудио: 48 kHz, AC3 Dolby Digital, 3/2 (L,C,R,l,r) + LFE ch, ~384.00 kbps avg

Код:
Код:
Общее
Полное имя                               : D:\Osada_Zhadovilya_2016_WEBRip_by_Dalemake.avi
Формат                                   : AVI
Формат/Информация                        : Audio Video Interleave
Размер файла                             : 1,46 Гбайт
Продолжительность                        : 1 ч. 48 м.
Общий поток                              : 1927 Кбит/сек
Программа кодирования                    : VirtualDubMod 1.5.10.3 | www.virtualdub-fr.org || (build 2550/release)
Библиотека кодирования                   : VirtualDubMod build 2550/release

Видео
Идентификатор                            : 0
Формат                                   : MPEG-4 Visual
Профиль формата                          : Advanced Simple@L5
Параметр BVOP формата                    : 1
Параметр QPel формата                    : Нет
Параметр GMC формата                     : Без точки перехода
Параметр матрицы формата                 : Выборочная
Идентификатор кодека                     : XVID
Идентификатор кодека/Подсказка           : XviD
Продолжительность                        : 1 ч. 48 м.
Битрейт                                  : 1536 Кбит/сек
Ширина                                   : 720 пикселей
Высота                                   : 304 пикселя
Соотношение сторон                       : 2,35:1
Частота кадров                           : 23,976 кадра/сек
Цветовое пространство                    : YUV
Субдискретизация насыщенности            : 4:2:0
Битовая глубина                          : 8 бит
Тип развёртки                            : Прогрессивная
Метод сжатия                             : С потерями
Бит/(Пиксели*Кадры)                      : 0.293
Размер потока                            : 1,16 Гбайт (80%)
Библиотека кодирования                   : XviD 67

Аудио
Идентификатор                            : 1
Формат                                   : AC-3
Формат/Информация                        : Audio Coding 3
Расширение режима                        : CM (complete main)
Параметр Endianness формата              : Big
Идентификатор кодека                     : 2000
Продолжительность                        : 1 ч. 47 м.
Вид битрейта                             : Постоянный
Битрейт                                  : 384 Кбит/сек
Каналы                                   : 6 каналов
Расположение каналов                     : Front: L C R, Side: L R, LFE
Частота                                  : 48,0 КГц
Битовая глубина                          : 16 бит
Метод сжатия                             : С потерями
Размер потока                            : 296 Мбайт (20%)
Выравнивание                             : Разделение по промежуткам
Продолжительность промежутка             : 42  мс. (1,01 видеокадр)
Время предзагрузки промежутка            : 500  мс.


загрузка...
Правила, инструкции, FAQ!!!
Торрент  Добавлен [10 дек 2016, 12:48] Скачать торрент
Скачать торрент
[ Размер 15.07 КБ / Просмотров 61 ]

Статус
Проверен 
 
Размер  1.46 ГБ
Приватный: Нет (DHT включён)
.torrent скачан  2
Как залить торрент? | Как скачать Torrent? | Как смотреть и слушать онлайн?  


     Отправить личное сообщение
   
Страница 1 из 1
Показать сообщения за:  Поле сортировки  
Начать новую тему Ответить на тему

   Похожие торренты   Автор   Ответы   Просмотры   Последнее сообщение 
В этой теме нет новых непрочитанных сообщений. Скачать торрент Проверен Стивен Хант / Stephen Hunt - Небесный суд / The Court of the Air [2009, fb2, rtf, pdf]

в форуме Фантастика, фэнтези, Размер: 5.71 МБ, Здоровье: 0%

Anonymous

0
0|0

1
0

12 июн 2017, 21:54

Anonymous Перейти к последнему сообщению

В этой теме нет новых непрочитанных сообщений. Скачать торрент Проверен Teach Yourself - Martin Hunt / Мартин Хант - English Vocabulary / Лексикон Английского Языка [2003, PDF, + WAV]

в форуме Английский язык (для взрослых), Размер: 1.35 ГБ, Здоровье: 0%

Anonymous

0
0|0

3
0

28 фев 2017, 00:21

Anonymous Перейти к последнему сообщению

В этой теме нет новых непрочитанных сообщений. Скачать торрент Проверен Teach Yourself - Martin Hunt / Мартин Хант - English Vocabulary / Лексикон Английского Языка [2003, DJVU + MP3]

в форуме Английский язык (для взрослых), Размер: 155.04 МБ, Здоровье: 100%

Anonymous

0
1|0

4
1

28 фев 2017, 19:50

Anonymous Перейти к последнему сообщению

В этой теме нет новых непрочитанных сообщений. Скачать торрент Проверен Ben Hunt / Бен Хант - Convert!: Designing Web Sites to Increase Traffic and Conversion / Конверсия сайта. Превращаем посетителей в покупателей [2011-2012, PDF/DOC, ENG/RUS]

в форуме Веб-дизайн и программирование, Размер: 17.35 МБ, Здоровье: 100%

Anonymous

0
10|3

24
0

22 окт 2016, 10:42

Anonymous Перейти к последнему сообщению

В этой теме нет новых непрочитанных сообщений. Скачать торрент Проверен Hunt A., Thomas D. / Хант Э., Томас Д. - The Pragmatic Programmer. From Journeyman to Master / Программист-прагматик. Путь от подмастерья к мастеру [1999, DjVu/GIF, RUS]

в форуме Веб-дизайн и программирование, Размер: 34.59 МБ, Здоровье: 0%

Anonymous

0
0|0

30
0

22 окт 2016, 13:15

Anonymous Перейти к последнему сообщению



Сейчас этот форум просматривают: нет зарегистрированных пользователей и гости: 1


Вы не можете начинать темы
Вы не можете отвечать на сообщения
Вы не можете редактировать свои сообщения
Вы не можете удалять свои сообщения
Вы не можете добавлять вложения

Перейти:  

!ВНИМАНИЕ!
 Ресурс не предоставляет электронные версии произведений, а занимается лишь коллекционированием и каталогизацией ссылок, присылаемых и публикуемых на форуме нашими читателями. Если вы являетесь правообладателем какого-либо представленного материала и не желаете чтобы ссылка на него находилась в нашем каталоге, свяжитесь с нами и мы незамедлительно удалим её. Файлы для обмена на трекере предоставлены пользователями сайта, и администрация не несёт ответственности за их содержание. Просьба не заливать файлы, защищенные авторскими правами, а также файлы нелегального содержания!