На всех торрентах на трекере установлена скидка на скачивание в размере 100 процентов(а).
 Возможность скачивания торрента НЕ зависит от ограничений при низком ратио, низком аплоаде, требуемом ратио или требуемом аплоаде.


Начать новую тему Ответить на тему
Статистика раздачи
Размер: 7.75 ГБ | Добавлен: 07 дек 2014, 10:54 | Скачали: 924
Сидеров: 208  [0 байт/сек]    Личеров: 19  [0 байт/сек]
Пред. тема | След. тема 

Автор
Сообщение

СообщениеДобавлено: 07 дек 2014, 10:54 

Ответить с цитатой 

Год выпуска: 2013
Жанр: триллер, криминал, боевик, драма, мелодрама, комедия
Выпущено: США, Румыния
Режиссер: Фредрик Бонд
В ролях: Шайа ЛаБаф , Эван Рэйчел Вуд , Мадс Миккельсен , Тиль Швайгер , Руперт Гринт , Джеймс Бакли , Ион Карамитру , Винсент Д’Онофрио , Мелисса Лео , Джон Хёрт , Андрей Финти , Ванесса Кирби
Перевод: Дублированный - [Лицензия]

Сюжет фильма:
Чарли Кантримен живет в США, спасаясь с помощью галлюциногенных веществ от скучной работы и тоски ничем не примечательного существования. Во время очередного наркотического трипа Чарли видит свою покойную мать, которая настоятельно рекомендует сыну съездить в Бухарест. Он не смеет ослушаться маму - и там герой фильма знакомится с девушкой своей мечты, а заодно - с местными криминальными порядками, из-за чего рискует в скором времени расстаться с жизнью.



Качество: BDRip 1080p (исходник Blu-ray)
Формат: AVC (библиотека кодирования x.264)
Контейнер (Расширение): MKV
Видео: 1920x804 (2.40:1), 10596 Кбит/сек, 25 кадр/сек, 0,275 Бит/[Пиксели*Кадры]
Аудио: русский / AC3 / 5.1 / 48 kHz / 640 kbps / 16 bit |Дублированный|
Навигация по главам(Чаптеры): есть
Продолжительность: 01:38:48

Автор рипа:


Format : Matroska
Format version : Version 2
File size : 7.75 GiB
Duration : 1h 38mn
Overall bit rate : 11.2 Mbps
Movie name : Opasnaja illjuzija.(2013).BDRip.1080.[denis100]
Encoded date : UTC 2014-12-07 06:14:42
Writing application : mkvmerge v5.8.0 ('No Sleep / Pillow') built on Sep 2 2012 15:37:04
Writing library : libebml v1.2.3 + libmatroska v1.3.0

Video
ID : 1
Format : AVC
Format/Info : Advanced Video Codec
Format profile : High@L4.1
Format settings, CABAC : Yes
Format settings, ReFrames : 5 frames
Codec ID : V_MPEG4/ISO/AVC
Duration : 1h 38mn
Bit rate : 10.6 Mbps
Width : 1 920 pixels
Height : 804 pixels
Display aspect ratio : 2.40:1
Frame rate : 25.000 fps
Color space : YUV
Chroma subsampling : 4:2:0
Bit depth : 8 bits
Scan type : Progressive
Bits/(Pixel*Frame) : 0.275
Stream size : 7.15 GiB (92%)
Title : Opasnaja illjuzija.(2013).BDRip.1080.[denis100]
Writing library : x264 core 142 r2491 24e4fed
Encoding settings : cabac=1 / ref=5 / deblock=1:-3:-3 / analyse=0x3:0x133 / me=umh / subme=11 / psy=1 / psy_rd=1.00:0.10 / mixed_ref=1 / me_range=32 / chroma_me=1 / trellis=2 / 8x8dct=1 / cqm=0 / deadzone=21,11 / fast_pskip=0 / chroma_qp_offset=-3 / threads=6 / lookahead_threads=1 / sliced_threads=0 / nr=0 / decimate=1 / interlaced=0 / bluray_compat=0 / constrained_intra=0 / bframes=7 / b_pyramid=2 / b_adapt=2 / b_bias=0 / direct=3 / weightb=1 / open_gop=0 / weightp=2 / keyint=250 / keyint_min=24 / scenecut=40 / intra_refresh=0 / rc=2pass / mbtree=0 / bitrate=10596 / ratetol=1.0 / qcomp=0.60 / qpmin=0 / qpmax=69 / qpstep=4 / cplxblur=20.0 / qblur=0.5 / ip_ratio=1.40 / pb_ratio=1.30 / aq=1:0.90
Language : English
Default : Yes
Forced : No

Audio
ID : 2
Format : AC-3
Format/Info : Audio Coding 3
Mode extension : CM (complete main)
Codec ID : A_AC3
Duration : 1h 38mn
Bit rate mode : Constant
Bit rate : 640 Kbps
Channel(s) : 6 channels
Channel positions : Front: L C R, Side: L R, LFE
Sampling rate : 48.0 KHz
Bit depth : 16 bits
Compression mode : Lossy
Stream size : 452 MiB (6%)
Title : Дублированный
Language : Russian
Default : Yes
Forced : No

Menu
00:00:00.000 : en:00:00:00.000
00:09:07.320 : en:00:09:07.320
00:16:04.600 : en:00:16:04.600
00:21:17.960 : en:00:21:17.960
00:28:11.560 : en:00:28:11.560
00:35:55.880 : en:00:35:55.880
00:43:29.000 : en:00:43:29.000
00:52:44.680 : en:00:52:44.680
01:00:55.280 : en:01:00:55.280
01:13:31.080 : en:01:13:31.080
01:24:21.560 : en:01:24:21.560
01:29:03.000 : en:01:29:03.000
x264 [info]: frame I:1057 Avg QP:13.82 size:202906
x264 [info]: frame P:37060 Avg QP:16.61 size: 82129
x264 [info]: frame B:110095 Avg QP:18.76 size: 41652

загрузка...
Правила, инструкции, FAQ!!!
Торрент  Добавлен [07 дек 2014, 10:54] Скачать торрент Магнет ссылка
Скачать торрент
[ Размер 39.31 КБ / Просмотров 12 ]

Статус
Проверен 
 
Размер  7.75 ГБ
Приватный: Нет (DHT включён)
.torrent скачан  924
Как залить торрент? | Как скачать Torrent? | Как смотреть и слушать онлайн?  


     Отправить личное сообщение
   
Страница 1 из 1
Показать сообщения за:  Поле сортировки  
Начать новую тему Ответить на тему

   Похожие торренты   Автор   Ответы   Просмотры   Последнее сообщение 
В этой теме нет новых непрочитанных сообщений. Скачать торрент Проверен Опасная иллюзия / The Necessary Death of Charlie Countryman (2013) BDRip [576p] iPad

в форуме Фильмы для iPod, iPhone, iPad, Размер: 1.79 ГБ, Здоровье: 100%

Anonymous

0
12|2

54
0

13 дек 2014, 00:11

Anonymous Перейти к последнему сообщению

В этой теме нет новых непрочитанных сообщений. Скачать торрент Проверен Адмирал / Michiel de Ruyter (2015) BDRip 1080p от NNNB | A

в форуме 720p | 1080p, Размер: 11.55 ГБ, Здоровье: 100%

Гость

0
216|29

117
424

16 ноя 2015, 00:03

Гость Перейти к последнему сообщению

В этой теме нет новых непрочитанных сообщений. Скачать торрент Проверен Астерикс из Галлии / Astérix le Gaulois (1967) BDRip 1080p от NNNB | P

в форуме Зарубежные мультфильмы (HD Video), Размер: 4.76 ГБ, Здоровье: 100%

Anonymous

0
24|12

59
23

22 янв 2017, 23:44

Anonymous Перейти к последнему сообщению

В этой теме нет новых непрочитанных сообщений. Скачать торрент Проверен Иллюзия обмана 2 / Now You See Me 2 (2016) BDRip 1080p | RUS Transfer | Лицензия

в форуме 720p | 1080p, Размер: 19.87 ГБ, Здоровье: 100%

Гость

0
1168|51

291
150

20 авг 2016, 23:37

Гость Перейти к последнему сообщению

В этой теме нет новых непрочитанных сообщений. Скачать торрент Проверен Иллюзия обмана 2 / Now You See Me 2 (2016) BDRip 1080p | US Transfer | Лицензия

в форуме 720p | 1080p, Размер: 17.47 ГБ, Здоровье: 100%

Гость

0
155|103

155
209

29 авг 2016, 19:47

Гость Перейти к последнему сообщению



Сейчас этот форум просматривают: нет зарегистрированных пользователей и гости: 1


Вы не можете начинать темы
Вы не можете отвечать на сообщения
Вы не можете редактировать свои сообщения
Вы не можете удалять свои сообщения
Вы не можете добавлять вложения


!ВНИМАНИЕ!
 Ресурс не предоставляет электронные версии произведений, а занимается лишь коллекционированием и каталогизацией ссылок, присылаемых и публикуемых на форуме нашими читателями. Если вы являетесь правообладателем какого-либо представленного материала и не желаете чтобы ссылка на него находилась в нашем каталоге, свяжитесь с нами и мы незамедлительно удалим её. Файлы для обмена на трекере предоставлены пользователями сайта, и администрация не несёт ответственности за их содержание. Просьба не заливать файлы, защищенные авторскими правами, а также файлы нелегального содержания!