На всех торрентах на трекере установлена скидка на скачивание в размере 100 процентов(а).
 Возможность скачивания торрента НЕ зависит от ограничений при низком ратио, низком аплоаде, требуемом ратио или требуемом аплоаде.


Начать новую тему Ответить на тему
Статистика раздачи
Размер: 7.08 ГБ | Добавлен: 09 сен 2018, 19:32 | Скачали: 2522
Сидеров: 745  [0 байт/сек]    Личеров: 145  [0 байт/сек]
Пред. тема | След. тема 

Автор
Сообщение

СообщениеДобавлено: 09 сен 2018, 19:32 

Ответить с цитатой 

Название: Опасная игра Слоун / Мисс Слоун
Оригинальное название: Miss Sloane
Год выпуска: 2016
Жанр: триллер, драма
Режиссер: Джон Мэдден
В ролях: Джессика Честейн (Madeline Elizabeth Sloane), Дэвид Уилсон Барнс (Daniel Posner), Джон Литгоу (Senator Ronald Sperling), Элисон Пилл (Jane Molloy), Аарон Хейл (Spencer), Али Мукаддам (Ross), Майкл Стулбарг (Pat Connors), Дуглас Смит (Alex), Грэйс Линн Кунг (Lauren), Ной Роббинс (Franklin), Чак Шамата (Bill Sanford), Сэм Уотерстон (George Dupont)
О фильме: Победитель всегда на шаг впереди, и Элизабет, как никто другой, знает об этом. Ее главное оружие против своих оппонентов: непредсказуемость и манипуляция. Благодаря своим навыкам, Слоун быстро взлетает на верхушку политической карьеры. Кто-то в восторге от ее работы, а кто-то сжимает кулаки ярости...
Дело принимает совсем другие обороты, когда игра Слоун начинается против тех, кто управляет оружием в стране. Перейдя границы условно безопасной политики, она врывается на поле боя, где властвуют не только слова и дебаты. Здесь есть оружие, жестокость и смерть неугодных системе...

MPAA: R - Лицам до 17 лет обязательно присутствие взрослого
Страна: Франция, США
Студия: Archery Pictures, FilmNation Entertainment, Transfilm
Продолжительность: 02:12:11
Перевод: Профессиональный (дублированный) iTunes

Качество: BDRip 720p | playHD
Формат: Matroska
Видео: 1280х536 at 23.976 fps, x264, ~6494 kbps avg
Аудио#1: Russian: 48 kHz, AC3, 3/2 (L,C,R,l,r) + LFE ch, ~384 kbps avg |Дубляж, iTunes|
Аудио#2: English: 48 kHz, AC3, 3/2 (L,C,R,l,r) + LFE ch, ~640 kbps avg
Субтитры: Russian, English
***Сохранены оригинальные главы как на Blu-ray.
***Релиз: werecut PROD.
Сценарий фильма попал в Топ 5 Черного списка Голливуда за 2015 год.
Режиссер Джон Мэдден передал сценарий актрисе Джессике Честейн лично. На эту роль он рассматривал только ее. Ранее актриса снималась у Мэддена в фильме «Расплата» (2010).
Сценарист Джонатан Перера был единственным писателем, работавшим над сценарием. Это редкость в киноиндустрии.
В фильме играют три оскаровских номинанта: Джон Литгоу, Сэм Уотерстон и Джессика Честейн.
Сэм Уотерстон и Элисон Пилл ранее снимались вместе в сериале «Служба новостей» (2012-2014).
[*]Джессика Честейн и Марк Стронг также снялись вместе в фильме «Цель номер один» (2012).
Общее
Уникальный идентификатор : 132121224331906993939774964222021531745 (0x63659F4A018ACFD68E73B403E7A6F861)
Полное имя : Miss.Sloane.2016.bdriP.72Op.werecut.PROD.mkv
Формат : Matroska
Версия формата : Version 4 / Version 2
Размер файла : 7,08 Гбайт
Продолжительность : 2 ч. 12 м.
Общий поток : 7671 Кбит/сек
Название фильма : Miss Sloane 2016 OT werecut PROD.
Дата кодирования : UTC 2018-09-08 14:34:00
Программа кодирования : mkvmerge v24.0.0 ('Beyond The Pale') 64-bit
Библиотека кодирования : libebml v1.3.6 + libmatroska v1.4.9

Видео
Идентификатор : 1
Формат : AVC
Формат/Информация : Advanced Video Codec
Профиль формата : High@L4.1
Параметр CABAC формата : Да
Параметр ReFrames формата : 12 кадров
Идентификатор кодека : V_MPEG4/ISO/AVC
Продолжительность : 2 ч. 12 м.
Битрейт : 6494 Кбит/сек
Ширина : 1280 пикселей
Высота : 536 пикселей
Соотношение сторон : 2,40:1
Режим частоты кадров : Постоянный
Частота кадров : 23,976 кадра/сек
Цветовое пространство : YUV
Субдискретизация насыщенности : 4:2:0
Битовая глубина : 8 бит
Тип развёртки : Прогрессивная
Бит/(Пиксели*Кадры) : 0.395
Размер потока : 6,00 Гбайт (85%)
Библиотека кодирования : x264 core 148 r2744kMod b97ae06
Настройки программы : cabac=1 / ref=12 / deblock=1:-3:-3 / analyse=0x3:0x133 / me=umh / subme=10 / psy=1 / fade_compensate=0.00 / psy_rd=1.00:0.00 / mixed_ref=1 / me_range=32 / chroma_me=1 / trellis=2 / 8x8dct=1 / cqm=0 / deadzone=21,11 / fast_pskip=0 / chroma_qp_offset=-2 / threads=12 / lookahead_threads=2 / sliced_threads=0 / nr=0 / decimate=0 / interlaced=0 / bluray_compat=0 / constrained_intra=0 / bframes=8 / b_pyramid=2 / b_adapt=2 / b_bias=0 / direct=3 / weightb=1 / open_gop=0 / weightp=2 / keyint=250 / keyint_min=23 / scenecut=40 / intra_refresh=0 / rc=crf / mbtree=0 / crf=15.5000 / qcomp=0.60 / qpmin=0 / qpmax=69 / qpstep=4 / ip_ratio=1.40 / pb_ratio=1.30 / aq=3:0.80
Язык : English
Default : Да
Forced : Нет

Аудио #1
Идентификатор : 2
Формат : AC-3
Формат/Информация : Audio Coding 3
Расширение режима : CM (complete main)
Параметр Endianness формата : Big
Идентификатор кодека : A_AC3
Продолжительность : 2 ч. 12 м.
Вид битрейта : Постоянный
Битрейт : 384 Кбит/сек
Каналы : 6 каналов
Расположение каналов : Front: L C R, Side: L R, LFE
Частота : 48,0 КГц
Битовая глубина : 16 бит
Метод сжатия : С потерями
Размер потока : 363 Мбайт (5%)
Язык : Russian
Default : Да
Forced : Да

Аудио #2
Идентификатор : 3
Формат : AC-3
Формат/Информация : Audio Coding 3
Расширение режима : CM (complete main)
Параметр Endianness формата : Big
Идентификатор кодека : A_AC3
Продолжительность : 2 ч. 12 м.
Вид битрейта : Постоянный
Битрейт : 640 Кбит/сек
Каналы : 6 каналов
Расположение каналов : Front: L C R, Side: L R, LFE
Частота : 48,0 КГц
Битовая глубина : 16 бит
Метод сжатия : С потерями
Размер потока : 605 Мбайт (8%)
Язык : English
Default : Нет
Forced : Нет

Текст #1
Идентификатор : 4
Формат : UTF-8
Идентификатор кодека : S_TEXT/UTF8
Идентификатор кодека/Информация : UTF-8 Plain Text
Язык : Russian
Default : Нет
Forced : Нет

Текст #2
Идентификатор : 5
Формат : UTF-8
Идентификатор кодека : S_TEXT/UTF8
Идентификатор кодека/Информация : UTF-8 Plain Text
Язык : English
Default : Нет
Forced : Нет

Меню
00:00:00.000 : en:00:00:00.000
00:03:17.572 : en:00:03:17.572
00:10:01.810 : en:00:10:01.810
00:14:33.331 : en:00:14:33.331
00:21:39.632 : en:00:21:39.632
00:27:24.601 : en:00:27:24.601
00:30:24.614 : en:00:30:24.614
00:35:40.597 : en:00:35:40.597
00:40:37.018 : en:00:40:37.018
00:45:36.651 : en:00:45:36.651
00:50:08.130 : en:00:50:08.130
00:56:55.662 : en:00:56:55.662
01:01:31.146 : en:01:01:31.146
01:05:00.563 : en:01:05:00.563
01:10:10.415 : en:01:10:10.415
01:15:56.552 : en:01:15:56.552
01:22:25.399 : en:01:22:25.399
01:31:17.097 : en:01:31:17.097
01:35:47.825 : en:01:35:47.825
01:41:48.436 : en:01:41:48.436
01:45:25.653 : en:01:45:25.653
01:54:30.781 : en:01:54:30.781
02:03:40.288 : en:02:03:40.288
02:08:02.008 : en:02:08:02.008
загрузка...
Правила, инструкции, FAQ!!!
Торрент  Добавлен [09 сен 2018, 19:32] Скачать торрент Магнет ссылка
Скачать торрент
[ Размер 36.33 КБ / Просмотров 2 ]

Статус
Проверен 
 
Размер  7.08 ГБ
Приватный: Нет (DHT включён)
.torrent скачан  2522
Как залить торрент? | Как скачать Torrent? | Ошибка в торренте? Качайте магнет  


     Отправить личное сообщение
   
Страница 1 из 1
Показать сообщения за:  Поле сортировки  
Начать новую тему Ответить на тему

   Похожие торренты   Автор   Ответы   Просмотры   Последнее сообщение 
В этой теме нет новых непрочитанных сообщений. Скачать торрент Проверен Мисс Слоун / Miss Sloane (Джон Мэдден / John Madden) [2016, Франция, США, драма, социально-политический триллер, HDRip] Original Eng + Sub Rus (porcellus)

в форуме Фильмы 2016-2017, Размер: 1.46 ГБ, Здоровье: 100%

Anonymous

0
43|11

42
1

03 фев 2018, 20:27

Anonymous Перейти к последнему сообщению

В этой теме нет новых непрочитанных сообщений. Скачать торрент Мисс Петтигрю живет одним днем / Один день из жизни мисс Петтигрю / Miss Pettigrew Lives for a Day (2008) BDRip 720p

в форуме 720p | 1080p, Размер: 4.94 ГБ, Здоровье: 100%

Anonymous

0
1|0

107
0

31 дек 2013, 15:48

Anonymous Перейти к последнему сообщению

В этой теме нет новых непрочитанных сообщений. Скачать торрент Проверен Дом странных детей Мисс Перегрин / Miss Peregrine's Home for Peculiar Children [2016, фэнтези, BDRip-AVC] Dub (BD CEE) + Sub Rus

в форуме Фантастика, Фэнтези, Размер: 1.46 ГБ, Здоровье: 100%

Гость

0
268|32

345
181

14 янв 2017, 00:03

Гость Перейти к последнему сообщению

В этой теме нет новых непрочитанных сообщений. Скачать торрент Проверен Дом странных детей Мисс Перегрин / Miss Peregrine's Home for Peculiar Children (Тим Бёртон / Tim Burton) [2016, США, Фэнтези, драма, приключения, семейный, BDRip] Dub

в форуме Фильмы 2016-2017, Размер: 1.46 ГБ, Здоровье: 0%

Anonymous

0
0|0

15
0

03 фев 2018, 19:20

Anonymous Перейти к последнему сообщению

В этой теме нет новых непрочитанных сообщений. Скачать торрент Проверен Игра на понижение / The Big Short (2015) BDRip 720p | iTunes

в форуме 720p | 1080p, Размер: 9.41 ГБ, Здоровье: 100%

Гость

0
356|201

187
583

19 апр 2016, 21:22

Гость Перейти к последнему сообщению



Сейчас этот форум просматривают: нет зарегистрированных пользователей и гости: 0


Вы не можете начинать темы
Вы не можете отвечать на сообщения
Вы не можете редактировать свои сообщения
Вы не можете удалять свои сообщения
Вы не можете добавлять вложения

Перейти:  
Ресурс не предоставляет электронные версии произведений, а занимается лишь коллекционированием и каталогизацией ссылок, присылаемых и публикуемых на форуме нашими читателями. Если вы являетесь правообладателем какого-либо представленного материала и не желаете чтобы ссылка на него находилась в нашем каталоге, свяжитесь с нами и мы незамедлительно удалим её. Файлы для обмена на трекере предоставлены пользователями сайта, и администрация не несёт ответственности за их содержание. Просьба не заливать файлы, защищенные авторскими правами, а также файлы нелегального содержания!
cron