На всех торрентах на трекере установлена скидка на скачивание в размере 100 процентов(а).
 Возможность скачивания торрента НЕ зависит от ограничений при низком ратио, низком аплоаде, требуемом ратио или требуемом аплоаде.


Начать новую тему Ответить на тему
Статистика раздачи
Размер: 1.46 ГБ | Добавлен: 05 окт 2018, 20:53 | Скачали: 1
Сидеров: 35  [0 байт/сек]    Личеров: 11  [0 байт/сек]
Пред. тема | След. тема 

Автор
Сообщение

СообщениеДобавлено: 05 окт 2018, 20:53 

Ответить с цитатой 

Охота на воров / Den of Thieves

Год выхода: 2018
Выпущено: США / Atmosphere Entertainment MM
Жанр: боевик, триллер, драма, криминал, детектив
Продолжительность: 02:28:49
Перевод:Профессиональный (дублированный) + вставки VO М. Яроцкого на эпизоды расширенной версии
Субтитры: нет
Режиссер:
Кристиан Гьюдгэст / Christian Gudegast
В ролях:
Джерард Батлер, Пабло Шрайбер, О’Ши Джексон мл., Фифти Сент, Медоу Уильямс, Морис Комт, Брайан Ван Холт, Ивэн Джонс, Мо, Каиви Лайман
О фильме:
Большой Ник — начальник элитного подразделения полиции Лос-Анджелеса — ежедневно доказывает, что его команда более крутая, чем те, на кого они охотятся. Когда коп узнает, что легендарный и неуловимый вор планирует дерзкое ограбление Федерального резервного банка США, то он решает помешать этому любым способом. И играть по правилам он не привык.
Релиз групп | | IMDB | КиноПоиск | Сэмпл |
Качество: BDRip [Den.of.Thieves.2018.UNRATED.1080p.BluRay.AVC.DTS-HD.MA.5.1-FGT]
Формат: AVI
Видео: 720x304 (2.37:1), 23.976 fps, XviD build 67 ~1202 kbps avg, 0.23 bit/pixel
Аудио: 48 kHz, AC3 Dolby Digital, 2/0 (L,R) ch, ~192 kbps avg

Код:
Код:
Общее
Полное имя                               : D:\Ohota_na_vorov_2018_BDRip_[Unrated_Cut]_by_Dalemake.avi
Формат                                   : AVI
Формат/Информация                        : Audio Video Interleave
Размер файла                             : 1,46 Гбайт
Продолжительность                        : 2 ч. 28 м.
Общий поток                              : 1404 Кбит/сек
Программа кодирования                    : VirtualDubMod 1.5.10.3 | www.virtualdub-fr.org || (build 2550/release)
Библиотека кодирования                   : VirtualDubMod build 2550/release
Видео
Идентификатор                            : 0
Формат                                   : MPEG-4 Visual
Профиль формата                          : Advanced Simple@L5
Параметр BVOP формата                    : 1
Параметр QPel формата                    : Нет
Параметр GMC формата                     : Без точки перехода
Параметр матрицы формата                 : Выборочная
Идентификатор кодека                     : XVID
Идентификатор кодека/Подсказка           : XviD
Продолжительность                        : 2 ч. 28 м.
Битрейт                                  : 1203 Кбит/сек
Ширина                                   : 720 пикселей
Высота                                   : 304 пикселя
Соотношение сторон                       : 2,35:1
Частота кадров                           : 23,976 кадра/сек
Цветовое пространство                    : YUV
Субдискретизация насыщенности            : 4:2:0
Битовая глубина                          : 8 бит
Тип развёртки                            : Прогрессивная
Метод сжатия                             : С потерями
Бит/(Пиксели*Кадры)                      : 0.229
Размер потока                            : 1,25 Гбайт (86%)
Библиотека кодирования                   : XviD 67
Аудио
Идентификатор                            : 1
Формат                                   : AC-3
Формат/Информация                        : Audio Coding 3
Расширение режима                        : CM (complete main)
Параметр Endianness формата              : Big
Идентификатор кодека                     : 2000
Продолжительность                        : 2 ч. 28 м.
Вид битрейта                             : Постоянный
Битрейт                                  : 192 Кбит/сек
Каналы                                   : 2 канала
Расположение каналов                     : Front: L R
Частота                                  : 48,0 КГц
Битовая глубина                          : 16 бит
Метод сжатия                             : С потерями
Размер потока                            : 204 Мбайт (14%)
Выравнивание                             : Разделение по промежуткам
Продолжительность промежутка             : 42  мс. (1,00 видеокадр)
Время предзагрузки промежутка            : 500  мс.


загрузка...
Правила, инструкции, FAQ!!!
Торрент  Добавлен [05 окт 2018, 20:53] Скачать торрент Магнет ссылка
Скачать торрент
[ Размер 15.19 КБ / Просмотров 5 ]

Статус
Проверен 
 
Размер  1.46 ГБ
Приватный: Нет (DHT включён)
.torrent скачан  1
Как залить торрент? | Как скачать Torrent? | Ошибка в торренте? Качайте магнет  


     Отправить личное сообщение
   
Страница 1 из 1
Показать сообщения за:  Поле сортировки  
Начать новую тему Ответить на тему

   Похожие торренты   Автор   Ответы   Просмотры   Последнее сообщение 
В этой теме нет новых непрочитанных сообщений. Скачать торрент Проверен Охота на воров / Den of Thieves (Кристиан Гьюдгэст / Christian Gudegast) [2018, США, боевик, триллер, драма, криминал, детектив, BDRip-AVC] Dub

в форуме Боевики, Размер: 1.46 ГБ, Здоровье: 100%

Anonymous

0
35|11

4
0

05 окт 2018, 20:07

Anonymous Перейти к последнему сообщению

В этой теме нет новых непрочитанных сообщений. Скачать торрент Проверен Охота на воров / Den of Thieves (Кристиан Гьюдгэст / Christian Gudegast) [2018, США, боевик, триллер, драма, криминал, детектив, BDRip] Dub (iTunes) + Sub Eng + Original Eng

в форуме Боевики, Размер: 2.19 ГБ, Здоровье: 100%

Anonymous

0
35|11

6
0

05 окт 2018, 20:01

Anonymous Перейти к последнему сообщению

В этой теме нет новых непрочитанных сообщений. Скачать торрент Проверен Охота на воров / Den of Thieves (Кристиан Гьюдгэст / Christian Gudegast) [2018, США, боевик, триллер, драма, BDRip-AVC] Dub + Original + Sub (eng)

в форуме Боевики, Размер: 2.99 ГБ, Здоровье: 100%

Anonymous

0
35|11

8
0

05 окт 2018, 20:17

Anonymous Перейти к последнему сообщению

В этой теме нет новых непрочитанных сообщений. Скачать торрент Проверен Плохой Санта 2 / Bad Santa 2 (Марк Уотерс / Mark Waters) [2016, США, Драма, комедия, криминал, BDRip] [Расширенная версия / Unrated Cut] Dub + (Вставки VO)

в форуме Фильмы 2016-2017, Размер: 1.47 ГБ, Здоровье: 0%

Anonymous

0
0|0

12
0

03 фев 2018, 20:14

Anonymous Перейти к последнему сообщению

В этой теме нет новых непрочитанных сообщений. Скачать торрент Код да Винчи / The Da Vinci Code (Рон Ховард / Ron Howard) [2006 г., триллер, детектив, BDRip] [расширенная версия / extended edition] Dub (вставки MVO)

в форуме Триллеры, Размер: 2.18 ГБ, Здоровье: 100%

Anonymous

0
96|31

103
2

12 фев 2014, 11:45

Anonymous Перейти к последнему сообщению



Сейчас этот форум просматривают: нет зарегистрированных пользователей и гости: 0


Вы не можете начинать темы
Вы не можете отвечать на сообщения
Вы не можете редактировать свои сообщения
Вы не можете удалять свои сообщения
Вы не можете добавлять вложения

Перейти:  
Ресурс не предоставляет электронные версии произведений, а занимается лишь коллекционированием и каталогизацией ссылок, присылаемых и публикуемых на форуме нашими читателями. Если вы являетесь правообладателем какого-либо представленного материала и не желаете чтобы ссылка на него находилась в нашем каталоге, свяжитесь с нами и мы незамедлительно удалим её. Файлы для обмена на трекере предоставлены пользователями сайта, и администрация не несёт ответственности за их содержание. Просьба не заливать файлы, защищенные авторскими правами, а также файлы нелегального содержания!
cron