На всех торрентах на трекере установлена скидка на скачивание в размере 100 процентов(а).
 Возможность скачивания торрента НЕ зависит от ограничений при низком ратио, низком аплоаде, требуемом ратио или требуемом аплоаде.


Начать новую тему Ответить на тему
Статистика раздачи
Размер: 2.17 ГБ | Добавлен: 19 янв 2018, 23:25 | Скачали: 2
Сидеров: 1  [0 байт/сек]    Личеров: 1  [0 байт/сек]
Пред. тема | След. тема 

Автор
Сообщение

СообщениеДобавлено: 19 янв 2018, 23:25 

Ответить с цитатой 

Год выпуска: 2016
Оригинальное название: Hunt for the Wilderpeople
Страна: Новая Зеландия
Жанр: драма, комедия, приключения
Возраст: 16+

Режиссер: Тайка Вайтити

В ролях: Сэм Нилл, Джулиан Деннисон, Рима Те Вьята, Рэйчел Хаус, Оскар Кайтли, Стэн Уокер, Майк Миноуг, Коэн Холлоуэй, Риз Дэрби

Описание: Рикки Бэйкер — упитанный городской хулиган. Сотрудница социальной службы Пола отвозит подростка в сельскую местность, где живёт единственная готовая принять его семья — Белла и её нелюдимый муж Гек. Когда Белла умирает и социальная защита собирается забрать Рикки, тот убегает в леса. Гек отправляется за ним. Сумасбродная Пола убеждена, что странный Гек слетел с катушек из-за смерти жены и похитил подростка. Она развязывает общенациональную охоту на мальчика и его «совратителя».

Продолжительность: 01:40:59
Перевод: Профессиональный многоголосый [Лицензия]
Оригинальная дорожка: нет

Релиз от:

Качество видео: BDRip 720p Исходник: Blu-Ray Remux (1080p) Формат: mp4
Видео кодек: MPEG-4 AVC Аудио кодек: AAC
Видео: 1280x536 (2.40:1) at 24.000 fps, AVC at 2 743 kbps avg, 0.167 bit/pixel
Аудио №1 Rus: 48.0 KHz, AAC, 2 ch, 160.0 Kbps
Аудио №2 Eng: 48.0 KHz, AAC, 2 ch, 160.0 Kbps
Субтитры: русские (полные), английские (полные)
Навигация по главам: есть
Размер: 2.17 GiB

avs [info]: 1280x536p 1:1 @ 24/1 fps (cfr)
x264 [info]: using SAR=1/1
x264 [info]: using cpu capabilities: MMX2 SSE2Fast SSSE3 Cache64
x264 [info]: profile High, level 4.1
x264 [info]: frame I:1402 Avg QP:15.40 size:154082
x264 [info]: frame P:30693 Avg QP:18.78 size: 37247
x264 [info]: frame B:113315 Avg QP:21.79 size: 6338
x264 [info]: consecutive B-frames: 2.3% 2.7% 6.2% 18.1% 15.8% 43.2% 5.1% 1.9% 4.7%
x264 [info]: mb I I16..4: 6.4% 65.5% 28.1%
x264 [info]: mb P I16..4: 1.5% 7.8% 1.2% P16..4: 43.6% 17.0% 18.8% 1.2% 0.6% skip: 8.4%
x264 [info]: mb B I16..4: 0.1% 0.6% 0.2% B16..8: 33.7% 5.5% 1.7% direct: 4.2% skip:54.0% L0:43.0% L1:44.8% BI:12.2%
x264 [info]: 8x8 transform intra:71.3% inter:61.5%
x264 [info]: coded y,uvDC,uvAC intra: 75.4% 84.1% 58.7% inter: 17.7% 23.3% 5.0%
x264 [info]: i16 v,h,dc,p: 37% 19% 7% 36%
x264 [info]: i8 v,h,dc,ddl,ddr,vr,hd,vl,hu: 18% 16% 17% 6% 9% 8% 9% 8% 9%
x264 [info]: i4 v,h,dc,ddl,ddr,vr,hd,vl,hu: 20% 15% 11% 7% 11% 10% 10% 8% 8%
x264 [info]: i8c dc,h,v,p: 52% 19% 19% 9%
x264 [info]: Weighted P-Frames: Y:5.4% UV:3.2%
x264 [info]: ref P L0: 49.6% 12.9% 17.4% 5.8% 5.7% 4.0% 4.5% 0.2% 0.0%
x264 [info]: ref B L0: 77.9% 10.8% 5.9% 2.9% 1.7% 0.7%
x264 [info]: ref B L1: 94.7% 5.3%
x264 [info]: kb/s:2743.11
encoded 145410 frames, 4.35 fps, 2743.11 kb/s

General
Complete name : ...Oxota-na-dikarej-2016_KinoGadget.mp4
Format : MPEG-4
Format profile : Base Media
Codec ID : isom (isom)
File size : 2.17 GiB
Duration : 1 h 40 min
Overall bit rate mode : Variable
Overall bit rate : 3 074 kb/s
Movie name : Охота на дикарей | KinoGadget
Performer : Тайка Вайтити
Director : Тайка Вайтити
Actor : Сэм Нилл / Джулиан Деннисон / Рима Те Вьята / Рэйчел Хаус / Оскар Кайтли / Стэн Уокер / Майк Миноуг / Коэн Холлоуэй / Риз Дэрби
Screenplay by : Тайка Вайтити / Te Arepa Kahi / Бэрри Крамп
Producer : Кэртхью Нил / Мэтт Нунан / Лиэнн Саундерс
Genre : Adventure, Comedy, Drama
ContentType : Short Film
Recorded date : 2016
Encoded date : UTC 2018-01-19 08:10:03
Tagged date : UTC 2018-01-19 09:05:14
Cover : Yes
ContentRating : mpaa|PG-13|300|
LongDeion : Рикки Бэйкер — упитанный городской хулиган. Сотрудница социальной службы Пола отвозит подростка в сельскую местность, где живёт единственная готовая принять его семья — Белла и её нелюдимый муж Гек. Когда Белла умирает и социальная защита собирается забрать Рикки, тот убегает в леса. Гек отправляется за ним. Сумасбродная Пола убеждена, что странный Гек слетел с катушек из-за смерти жены и похитил подростка. Она развязывает общенациональную охоту на мальчика и его «совратителя».
HDVideo : Yes

Video
ID : 1
Format : AVC
Format/Info : Advanced Video Codec
Format profile : High@L4.1
Format settings : CABAC / 7 Ref Frames
Format settings, CABAC : Yes
Format settings, ReFrames : 7 frames
Codec ID : avc1
Codec ID/Info : Advanced Video Coding
Duration : 1 h 40 min
Bit rate : 2 743 kb/s
Maximum bit rate : 18.2 Mb/s
Width : 1 280 pixels
Height : 536 pixels
Display aspect ratio : 2.40:1
Frame rate mode : Constant
Frame rate : 24.000 FPS
Color space : YUV
Chroma subsampling : 4:2:0
Bit depth : 8 bits
Scan type : Progressive
Bits/(Pixel*Frame) : 0.167
Stream size : 1.93 GiB (89%)
Writing library : x264 core 152 r2851 ba24899
Encoding settings : cabac=1 / ref=7 / deblock=1:-2:-1 / analyse=0x3:0x133 / me=umh / subme=7 / psy=1 / psy_rd=1.00:0.00 / mixed_ref=1 / me_range=32 / chroma_me=1 / trellis=2 / 8x8dct=1 / cqm=0 / deadzone=21,11 / fast_pskip=0 / chroma_qp_offset=-2 / threads=3 / lookahead_threads=1 / sliced_threads=0 / nr=0 / decimate=1 / interlaced=0 / bluray_compat=0 / constrained_intra=0 / bframes=8 / b_pyramid=2 / b_adapt=2 / b_bias=0 / direct=1 / weightb=1 / open_gop=0 / weightp=2 / keyint=250 / keyint_min=25 / scenecut=40 / intra_refresh=0 / rc_lookahead=60 / rc=crf / mbtree=1 / crf=19.0 / qcomp=0.60 / qpmin=0 / qpmax=69 / qpstep=4 / vbv_maxrate=62500 / vbv_bufsize=78125 / crf_max=0.0 / nal_hrd=none / filler=0 / ip_ratio=1.40 / aq=1:1.00
Encoded date : UTC 2018-01-19 01:12:32
Tagged date : UTC 2018-01-19 08:10:42

Audio #1
ID : 2
Format : AAC
Format/Info : Advanced Audio Codec
Format profile : LC
Codec ID : mp4a-40-2
Duration : 1 h 40 min
Bit rate mode : Variable
Bit rate : 160 kb/s
Maximum bit rate : 168 kb/s
Channel(s) : 2 channels
Channel positions : Front: L R
Sampling rate : 48.0 kHz
Frame rate : 46.875 FPS (1024 SPF)
Compression mode : Lossy
Stream size : 116 MiB (5%)
Language : Russian
Encoded date : UTC 2018-01-19 01:23:07
Tagged date : UTC 2018-01-19 08:10:42

Audio #2
ID : 3
Format : AAC
Format/Info : Advanced Audio Codec
Format profile : LC
Codec ID : mp4a-40-2
Duration : 1 h 40 min
Bit rate mode : Variable
Bit rate : 160 kb/s
Maximum bit rate : 168 kb/s
Channel(s) : 2 channels
Channel positions : Front: L R
Sampling rate : 48.0 kHz
Frame rate : 46.875 FPS (1024 SPF)
Compression mode : Lossy
Stream size : 116 MiB (5%)
Language : English
Encoded date : UTC 2018-01-19 02:26:31
Tagged date : UTC 2018-01-19 08:10:42

Text #1
ID : 4
Format : Timed Text
Codec ID : tx3g
Duration : 1 h 36 min
Bit rate mode : Variable
Bit rate : 129 b/s
Stream size : 91.1 KiB (0%)
Language : Russian
Forced : No
Encoded date : UTC 2018-01-19 08:10:42
Tagged date : UTC 2018-01-19 08:10:42

Text #2
ID : 5
Format : Timed Text
Codec ID : tx3g
Duration : 1 h 39 min
Bit rate mode : Variable
Bit rate : 60 b/s
Stream size : 44.2 KiB (0%)
Language : English
Forced : No
Encoded date : UTC 2018-01-19 08:10:42
Tagged date : UTC 2018-01-19 08:10:42

Menu
00:00:00.000 : 00:00:00.000
00:06:04.792 : 00:06:04.792
00:16:58.917 : 00:16:58.917
00:25:29.375 : 00:25:29.375
00:36:20.042 : 00:36:20.042
00:43:50.958 : 00:43:50.958
00:51:02.833 : 00:51:02.833
00:59:52.167 : 00:59:52.167
01:08:52.208 : 01:08:52.208
01:18:39.583 : 01:18:39.583
01:29:48.417 : 01:29:48.417
01:36:13.625 : 01:36:13.625



Данный рип предназначен для просмотра на мобильных гаджетах с поддержкой формата mp4
загрузка...
Правила, инструкции, FAQ!!!
Торрент  Добавлен [19 янв 2018, 23:25] Скачать торрент Магнет ссылка
Скачать торрент
[ Размер 11.84 КБ / Просмотров 126 ]

Статус
Проверен 
 
Размер  2.17 ГБ
Приватный: Нет (DHT включён)
.torrent скачан  2
Как залить торрент? | Как скачать Torrent? | Ошибка в торренте? Качайте магнет  


     Отправить личное сообщение
   
Страница 1 из 1
Показать сообщения за:  Поле сортировки  
Начать новую тему Ответить на тему

   Похожие торренты   Автор   Ответы   Просмотры   Последнее сообщение 
В этой теме нет новых непрочитанных сообщений. Скачать торрент Проверен Охота на дикарей / Hunt for the Wilderpeople (2016) HDRip | Лицензия

в форуме Приключения, Размер: 1.45 ГБ, Здоровье: 100%

Гость

0
40|3

83
1

19 янв 2018, 23:33

Гость Перейти к последнему сообщению

В этой теме нет новых непрочитанных сообщений. Скачать торрент Проверен Охота на дикарей / Hunt for the Wilderpeople (Тайка Вайтити / Taika Waititi) [2016, Новая Зеландия, Драма, комедия, приключения, BDRip] MVO

в форуме Фильмы 2016-2017, Размер: 1.46 ГБ, Здоровье: 0%

Anonymous

0
0|0

5
0

03 фев 2018, 20:54

Anonymous Перейти к последнему сообщению

В этой теме нет новых непрочитанных сообщений. Скачать торрент Проверен Охота на дикарей / Hunt for the Wilderpeople (Тайка Вайтити / Taika Waititi) [2016, Новая Зеландия, драма, комедия, приключения, BDRip] MVO (CEE) + Original Eng + subs (Rus, Eng)

в форуме Фильмы 2016-2017, Размер: 2.18 ГБ, Здоровье: 100%

Anonymous

0
20|7

6
1

03 фев 2018, 20:50

Anonymous Перейти к последнему сообщению

В этой теме нет новых непрочитанных сообщений. Скачать торрент Проверен Охота на диких людей / Охота на дикарей / Hunt for the Wilderpeople (Тайка Вайтити / Taika Waititi) [2016, Новая Зеландия, драма, комедия, приключения, HDRip] Sub (Rus, Eng) + Original Eng

в форуме Фильмы 2016-2017, Размер: 1.37 ГБ, Здоровье: 0%

Anonymous

0
0|0

14
0

03 фев 2018, 19:40

Anonymous Перейти к последнему сообщению

В этой теме нет новых непрочитанных сообщений. Скачать торрент Проверен Охота на дикарей / Охота на диких людей / Hunt for the Wilderpeople (Тайка Вайтити / Taika Waititi) [2016, Новая Зеландия, драма, комедия, приключения, HDRip] MVO (GreenРай Studio)

в форуме Фильмы 2016-2017, Размер: 748.21 МБ, Здоровье: 0%

Anonymous

0
0|0

9
0

03 фев 2018, 18:15

Anonymous Перейти к последнему сообщению



Сейчас этот форум просматривают: нет зарегистрированных пользователей и гости: 1


Вы не можете начинать темы
Вы не можете отвечать на сообщения
Вы не можете редактировать свои сообщения
Вы не можете удалять свои сообщения
Вы не можете добавлять вложения

Перейти:  
Ресурс не предоставляет электронные версии произведений, а занимается лишь коллекционированием и каталогизацией ссылок, присылаемых и публикуемых на форуме нашими читателями. Если вы являетесь правообладателем какого-либо представленного материала и не желаете чтобы ссылка на него находилась в нашем каталоге, свяжитесь с нами и мы незамедлительно удалим её. Файлы для обмена на трекере предоставлены пользователями сайта, и администрация не несёт ответственности за их содержание. Просьба не заливать файлы, защищенные авторскими правами, а также файлы нелегального содержания!
cron