На всех торрентах на трекере установлена скидка на скачивание в размере 100 процентов(а).
 Возможность скачивания торрента НЕ зависит от ограничений при низком ратио, низком аплоаде, требуемом ратио или требуемом аплоаде.


Начать новую тему Ответить на тему
Статистика раздачи
Размер: 6.67 ГБ | Добавлен: 18 окт 2013, 16:40 | Скачали: 0
Сидеров: 0  [0 байт/сек]    Личеров: 0  [0 байт/сек]
Пред. тема | След. тема 

Автор
Сообщение

СообщениеДобавлено: 18 окт 2013, 16:40 

Ответить с цитатой 

Название: Одноклассники 2
Оригинальное название: Grown Ups 2
Год выхода: 2013
Жанр: комедия
Режиссер: Деннис Дуган

В ролях: Адам Сэндлер, Кевин Джеймс, Крис Рок, Дэвид Спейд, Сальма Хайек, Майя Рудольф, Мария Белло, Ник Свардсон, Стив Бушеми, Колин Куинн

О фильме:
После того как Ленни Федер переезжает с семьей обратно в родной город, он и его друзья извлекут немало уроков, когда их дети окончат школу…



Выпущено: США / Columbia Pictures, Happy Madison Productions, Sony Pictures Entertainment (SPE)
Продолжительность: 01:40:58
Озвучивание: Дублированное [звук с TS]
Дополнительно: Сохранены чаптеры как на Blu-Ray


Формат: MKV (x264)
Качество: BDRip 1080p
Видео: 9336 Кбит/с, 1920x1040
Звук: MP3, 128 Кбит/с (2 ch)

Семпл


Format : Matroska
Format version : Version 4 / Version 2
File size : 6.67 GiB
Duration : 1h 40mn
Overall bit rate : 9 462 Kbps
Encoded date : UTC 2013-10-18 08:15:20
Writing application : mkvmerge v6.2.0 ('Promised Land') built on Apr 28 2013 12:22:01
Writing library : libebml v1.3.0 + libmatroska v1.4.0

Video
ID : 1
Format : AVC
Format/Info : Advanced Video Codec
Format profile : High@L4.1
Format settings, CABAC : Yes
Format settings, ReFrames : 4 frames
Codec ID : V_MPEG4/ISO/AVC
Duration : 1h 40mn
Bit rate : 9 336 Kbps
Width : 1 920 pixels
Height : 1 040 pixels
Display aspect ratio : 1.85:1
Frame rate mode : Constant
Frame rate : 23.976 fps
Color space : YUV
Chroma subsampling : 4:2:0
Bit depth : 8 bits
Scan type : Progressive
Bits/(Pixel*Frame) : 0.195
Stream size : 6.45 GiB (97%)
Title : X264
Writing library : x264 core 133 r2334 a3ac64b
Encoding settings : cabac=1 / ref=4 / deblock=1:0:0 / analyse=0x3:0x133 / me=umh / subme=7 / psy=1 / psy_rd=1.00:0.00 / mixed_ref=1 / me_range=16 / chroma_me=1 / trellis=1 / 8x8dct=1 / cqm=0 / deadzone=21,11 / fast_pskip=0 / chroma_qp_offset=-2 / threads=12 / lookahead_threads=2 / sliced_threads=0 / nr=0 / decimate=1 / interlaced=0 / bluray_compat=0 / constrained_intra=0 / bframes=3 / b_pyramid=2 / b_adapt=1 / b_bias=0 / direct=1 / weightb=1 / open_gop=0 / weightp=2 / keyint=250 / keyint_min=23 / scenecut=40 / intra_refresh=0 / rc_lookahead=40 / rc=2pass / mbtree=1 / bitrate=9336 / ratetol=1.0 / qcomp=0.60 / qpmin=0 / qpmax=69 / qpstep=4 / cplxblur=20.0 / qblur=0.5 / ip_ratio=1.40 / aq=1:1.00
Language : English
Default : Yes
Forced : No

Audio
ID : 2
Format : MPEG Audio
Format version : Version 1
Format profile : Layer 3
Mode : Joint stereo
Mode extension : MS Stereo
Codec ID : A_MPEG/L3
Codec ID/Hint : MP3
Duration : 1h 40mn
Bit rate mode : Constant
Bit rate : 128 Kbps
Channel count : 2 channels
Sampling rate : 48.0 KHz
Compression mode : Lossy
Stream size : 92.4 MiB (1%)
Language : Russian
Default : Yes
Forced : No

Menu
00:00:00.000 : en:00:00:00.000
00:04:30.937 : en:00:04:30.937
00:12:02.555 : en:00:12:02.555
00:18:14.677 : en:00:18:14.677
00:25:34.158 : en:00:25:34.158
00:29:47.661 : en:00:29:47.661
00:37:02.387 : en:00:37:02.387
00:45:15.713 : en:00:45:15.713
00:48:53.430 : en:00:48:53.430
00:54:22.593 : en:00:54:22.593
01:00:49.938 : en:01:00:49.938
01:05:15.662 : en:01:05:15.662
01:10:52.415 : en:01:10:52.415
01:16:49.355 : en:01:16:49.355
01:23:26.793 : en:01:23:26.793
01:31:02.666 : en:01:31:02.666





Релиз от:
загрузка...
Правила, инструкции, FAQ!!!
Торрент  Добавлен [18 окт 2013, 16:40] Скачать торрент Магнет ссылка
Скачать торрент
[ Размер 17.22 КБ / Просмотров 7 ]

Статус  
 
Размер  6.67 ГБ
Приватный: Нет (DHT включён)
.torrent скачан  0
Как залить торрент? | Как скачать Torrent? | Как смотреть и слушать онлайн?  


     Отправить личное сообщение
   
Страница 1 из 1
Показать сообщения за:  Поле сортировки  
Начать новую тему Ответить на тему

   Похожие торренты   Автор   Ответы   Просмотры   Последнее сообщение 
В этой теме нет новых непрочитанных сообщений. Скачать торрент Проверен Самба / Samba (2014) BDRip 1080p | Чистый звук

в форуме 720p | 1080p, Размер: 11.71 ГБ, Здоровье: 100%

Гость

0
499|56

137
4337

24 мар 2015, 00:39

Гость Перейти к последнему сообщению

В этой теме нет новых непрочитанных сообщений. Скачать торрент Проверен Superнянь / Babysitting (2014) BDRip 1080p | Чистый звук

в форуме 720p | 1080p, Размер: 6.27 ГБ, Здоровье: 100%

Anonymous

0
1278|219

124
1643

04 дек 2014, 00:16

Anonymous Перейти к последнему сообщению

В этой теме нет новых непрочитанных сообщений. Скачать торрент Проверен Золушка / Cinderella (2015) BDRip 1080p | Чистый звук

в форуме 720p | 1080p, Размер: 13.35 ГБ, Здоровье: 100%

Anonymous

0
103|74

199
504

22 июн 2015, 20:13

Anonymous Перейти к последнему сообщению

В этой теме нет новых непрочитанных сообщений. Скачать торрент Проверен Джезабель / Jessabelle (2014) BDRip 1080p | Чистый звук

в форуме 720p | 1080p, Размер: 11.58 ГБ, Здоровье: 100%

Anonymous

0
532|256

143
1627

03 апр 2015, 20:43

Anonymous Перейти к последнему сообщению

В этой теме нет новых непрочитанных сообщений. Скачать торрент Проверен Выхода нет / No Escape (2015) BDRip 1080p | Чистый звук

в форуме 720p | 1080p, Размер: 11.57 ГБ, Здоровье: 100%

Гость

0
999|305

129
3072

26 ноя 2015, 23:49

Гость Перейти к последнему сообщению



Сейчас этот форум просматривают: нет зарегистрированных пользователей и гости: 1


Вы не можете начинать темы
Вы не можете отвечать на сообщения
Вы не можете редактировать свои сообщения
Вы не можете удалять свои сообщения
Вы не можете добавлять вложения

Перейти:  

!ВНИМАНИЕ!
 Ресурс не предоставляет электронные версии произведений, а занимается лишь коллекционированием и каталогизацией ссылок, присылаемых и публикуемых на форуме нашими читателями. Если вы являетесь правообладателем какого-либо представленного материала и не желаете чтобы ссылка на него находилась в нашем каталоге, свяжитесь с нами и мы незамедлительно удалим её. Файлы для обмена на трекере предоставлены пользователями сайта, и администрация не несёт ответственности за их содержание. Просьба не заливать файлы, защищенные авторскими правами, а также файлы нелегального содержания!