На всех торрентах на трекере установлена скидка на скачивание в размере 100 процентов(а).
 Возможность скачивания торрента НЕ зависит от ограничений при низком ратио, низком аплоаде, требуемом ратио или требуемом аплоаде.


Начать новую тему Ответить на тему
Статистика раздачи
Размер: 3.78 ГБ | Добавлен: 21 окт 2014, 20:56 | Скачали: 2
Сидеров: 8  [0 байт/сек]    Личеров: 4  [0 байт/сек]
Пред. тема | След. тема 

Автор
Сообщение

СообщениеДобавлено: 21 окт 2014, 20:56 

Ответить с цитатой 

Одна строка

Жанр: драма
Год выпуска: 1960
Продолжительность: 01:35:01

Режиссёр: Иван Правов

В ролях: Анатолий Федоринов, Игорь Белозеров, Г. Беленькая, В. Васянин, Лидия Старокольцева, Генрих Билль, Виктор Чекмарёв, Григорий Гецов, Мария Некрасова, Геннадий Веретенников (II), Ф. Горяев

Описание: На севере Урала началось строительство химкомбината. Начальник стройки Пётр Мусатов назначает заместителем Антона Китаева (Анатолий Федоринов) - мужа своей сестры, человека прямого и честного, бывшего фронтовика. Антон вскоре понимает, что Пётр - типичный карьерист, преследующий только корыстные цели.


Качество видео: DVB
Формат видео: MPEG-PS

Видео: MPEG Video, 720(768)x576 (4:3), 25,000 кадров/сек, 5323 Кбит/сек
Аудио: MPEG Audio, 48,0 КГц, 256 Кбит/сек, 2 канала
Общее
Полное имя : D:\Torrent\ОДНА СТРОКА (КУЛЬТУРА 49).mpg
Формат : MPEG-PS
Размер файла : 3,78 Гбайт
Продолжительность : 1 ч. 35 м.
Режим общего битрейта : Переменный
Общий поток : 5692 Кбит/сек

Видео
Идентификатор : 224 (0xE0)
Формат : MPEG Video
Версия формата : Version 2
Профиль формата : Main@Main
Параметр BVOP формата : Да
Параметр матрицы формата : Выборочная
Параметр GOP формата : M=3, N=15
Продолжительность : 1 ч. 35 м.
Вид битрейта : Переменный
Битрейт : 5323 Кбит/сек
Максимальный битрейт : 15,0 Мбит/сек
Ширина : 720 пикселей
Высота : 576 пикселей
Соотношение сторон : 4:3
Частота кадров : 25,000 кадров/сек
Стандарт вещания : PAL
Цветовое пространство : YUV
Субдискретизация насыщенности : 4:2:0
Битовая глубина : 8 бит
Тип развёртки : Чересстрочная
Порядок развёртки : Верхнее поле первое
Метод сжатия : С потерями
Бит/(Пиксели*Кадры) : 0.513
Временной код первого кадра : 00:00:00:00
Оригинал временного кода : Group of pictures header
Размер потока : 3,53 Гбайт (94%)

Аудио
Идентификатор : 192 (0xC0)
Формат : MPEG Audio
Версия формата : Version 1
Профиль формата : Layer 2
Продолжительность : 1 ч. 35 м.
Вид битрейта : Постоянный
Битрейт : 256 Кбит/сек
Каналы : 2 канала
Частота : 48,0 КГц
Метод сжатия : С потерями
Задержка видео : 13 мс.
Размер потока : 174 Мбайт (4%)
загрузка...
Правила, инструкции, FAQ!!!
Торрент  Добавлен [21 окт 2014, 20:56] Скачать торрент Магнет ссылка
Скачать торрент
[ Размер 19.41 КБ / Просмотров 20 ]

Статус
Проверен 
 
Размер  3.78 ГБ
Приватный: Нет (DHT включён)
.torrent скачан  2
Как залить торрент? | Как скачать Torrent? | Ошибка в торренте? Качайте магнет  


     Отправить личное сообщение
   
Страница 1 из 1
Показать сообщения за:  Поле сортировки  
Начать новую тему Ответить на тему

   Похожие торренты   Автор   Ответы   Просмотры   Последнее сообщение 
В этой теме нет новых непрочитанных сообщений. Скачать торрент Мы - одна команда / We Are Marshall (МакДжи / McG) [2006 г., драма, спорт, BDRip-AVC]

в форуме Драмы, Мелодрамы, Размер: 2.14 ГБ, Здоровье: 100%

Anonymous

0
14|5

42
0

16 апр 2014, 07:50

Anonymous Перейти к последнему сообщению

В этой теме нет новых непрочитанных сообщений. Скачать торрент Мы — одна команда / We Are Marshall (МакДжи / McG) [2006 г., драма, история, спорт, HDRip] MVO

в форуме Драмы, Мелодрамы, Размер: 789.54 МБ, Здоровье: 0%

Anonymous

0
0|0

29
0

06 фев 2014, 11:44

Anonymous Перейти к последнему сообщению

В этой теме нет новых непрочитанных сообщений. Скачать торрент Проверен Одна война (Вера Глаголева) [2009, Россия, драма, BDRip 1080p]

в форуме Наше кино (HD Video), Размер: 8.11 ГБ, Здоровье: 100%

Гость

0
7|2

74
0

12 апр 2015, 10:59

Гость Перейти к последнему сообщению

В этой теме нет новых непрочитанных сообщений. Скачать торрент Проверен [iPhone] Еще одна из рода Болейн / The Other Boleyn Girl [2008 г., Мелодрама / драма / история]

в форуме Фильмы для iPod, iPhone, iPad, Размер: 699.79 МБ, Здоровье: 100%

Anonymous

0
14|1

81
3

14 май 2015, 00:27

Anonymous Перейти к последнему сообщению

В этой теме нет новых непрочитанных сообщений. Скачать торрент Одна Неделя / One Week (Майкл Макгоун / Michael McGowan) [2008 г., комедия, мелодрама, драма, HDRip]

в форуме Комедии, Размер: 1.19 ГБ, Здоровье: 0%

Anonymous

0
0|0

77
0

12 фев 2014, 11:47

Anonymous Перейти к последнему сообщению



Сейчас этот форум просматривают: нет зарегистрированных пользователей и гости: 0


Вы не можете начинать темы
Вы не можете отвечать на сообщения
Вы не можете редактировать свои сообщения
Вы не можете удалять свои сообщения
Вы не можете добавлять вложения

Перейти:  
Ресурс не предоставляет электронные версии произведений, а занимается лишь коллекционированием и каталогизацией ссылок, присылаемых и публикуемых на форуме нашими читателями. Если вы являетесь правообладателем какого-либо представленного материала и не желаете чтобы ссылка на него находилась в нашем каталоге, свяжитесь с нами и мы незамедлительно удалим её. Файлы для обмена на трекере предоставлены пользователями сайта, и администрация не несёт ответственности за их содержание. Просьба не заливать файлы, защищенные авторскими правами, а также файлы нелегального содержания!
cron