На всех торрентах на трекере установлена скидка на скачивание в размере 100 процентов(а).
 Возможность скачивания торрента НЕ зависит от ограничений при низком ратио, низком аплоаде, требуемом ратио или требуемом аплоаде.


Начать новую тему Ответить на тему
Статистика раздачи
Размер: 1.45 ГБ | Добавлен: 11 июн 2018, 09:30 | Скачали: 0
Сидеров: 1  [0 байт/сек]    Личеров: 0  [0 байт/сек]
Пред. тема | След. тема 

Автор
Сообщение

СообщениеДобавлено: 11 июн 2018, 09:30 

Ответить с цитатой 


Одичавшие / Feral



Страна: США
Жанр: ужасы, триллер
Год выпуска: 2017
Продолжительность: 01:31:39
Перевод: Любительский (многоголосый закадровый) HDrezka Studio
Субтитры: нет
Оригинальная аудиодорожка: нет
Режиссер: Марк Янг / Mark Young
В ролях: Скаут Тейлор-Комптон, Оливия Луккарди, Лью Темпл, Рени Олстэд, Брок Келли, Ландри Олбрайт, Джордж Финн, Саманта Гангал, Марк Мусаси, Лаура Вельта
Описание: На шестерых студентов-медиков, отправившихся на уик-энд в лес, нападает некое существо. Один за другим друзья заражаются «звериной болезнью», превращаясь в бешеных кровожадных существ, и запланированный отдых оборачивается кошмаром.


Качество видео: WEB-DLRip-AVC / Odichavshie_Feral_2017_WEB-DL_1080p
Формат видео: MKV
Видео: MPEG-4 AVC, 912x380 (2.40:1), 23.976 fps, ~2026 kbps avg, 0.244 bit/pixel
Аудио: 48 kHz, AC3 Dolby Digital, 2/0 (L,R) ch, ~192 kbps avg
Код:
Код:
Код:
Complete name               : D:\Раздача\Одичавшие (2017) WEB-DLRip_ivanes20031987.mkv
Format                      : Matroska
Format version              : Version 2
File size                   : 1.45 GiB
Duration                    : 1 h 31 min
Overall bit rate            : 2 263 kb/s
Movie name                  : Одичавшие (2017) WEB-DLRip_ivanes20031987
Encoded date                : UTC 2018-06-03 19:20:38
Writing application         : mkvmerge v4.4.0 ('Die Wiederkehr') сборка от Jan  3 2011 21:40:45
Writing library             : libebml v1.0.0 + libmatroska v1.0.0
Cover                       : Yes
Attachments                 : cover.jpg
Video
ID                          : 1
Format                      : AVC
Format/Info                 : Advanced Video Codec
Format profile              : High@L4.1
Format settings, CABAC      : Yes
Format settings, RefFrames  : 14 frames
Codec ID                    : V_MPEG4/ISO/AVC
Duration                    : 1 h 31 min
Bit rate                    : 2 026 kb/s
Width                       : 912 pixels
Height                      : 380 pixels
Display aspect ratio        : 2.40:1
Frame rate mode             : Constant
Frame rate                  : 23.976 (24000/1001) FPS
Color space                 : YUV
Chroma subsampling          : 4:2:0
Bit depth                   : 8 bits
Scan type                   : Progressive
Bits/(Pixel*Frame)          : 0.244
Stream size                 : 1.30 GiB (90%)
Title                       : Rip by ivanes20031987
Writing library             : x264 core 155 r2901 7d0ff22
Encoding settings           : cabac=1 / ref=14 / deblock=1:-2:-2 / analyse=0x3:0x113 / me=umh / subme=10 / psy=1 / psy_rd=1.00:0.00 / mixed_ref=1 / me_range=32 / chroma_me=1 / trellis=2 / 8x8dct=1 / cqm=0 / deadzone=21,11 / fast_pskip=0 / chroma_qp_offset=-2 / threads=12 / lookahead_threads=2 / sliced_threads=0 / nr=0 / decimate=0 / interlaced=0 / bluray_compat=0 / constrained_intra=0 / bframes=14 / b_pyramid=2 / b_adapt=2 / b_bias=0 / direct=1 / weightb=1 / open_gop=0 / weightp=2 / keyint=240 / keyint_min=23 / scenecut=40 / intra_refresh=0 / rc_lookahead=60 / rc=crf / mbtree=0 / crf=15.6 / qcomp=0.60 / qpmin=0 / qpmax=69 / qpstep=4 / vbv_maxrate=50000 / vbv_bufsize=62500 / crf_max=0.0 / nal_hrd=none / filler=0 / ip_ratio=1.40 / pb_ratio=1.30 / aq=1:1.00
Default                     : Yes
Forced                      : No
Audio
ID                          : 2
Format                      : AC-3
Format/Info                 : Audio Coding 3
Format settings, Endianness : Big
Codec ID                    : A_AC3
Duration                    : 1 h 31 min
Bit rate mode               : Constant
Bit rate                    : 192 kb/s
Channel(s)                  : 2 channels
Channel positions           : Front: L R
Sampling rate               : 48.0 kHz
Frame rate                  : 31.250 FPS (1536 SPF)
Bit depth                   : 16 bits
Compression mode            : Lossy
Stream size                 : 126 MiB (8%)
Title                       : HDrezka Studio
Language                    : Russian
Service kind                : Complete Main
Default                     : Yes
Forced                      : No

Код:
Код:
x264 [info]: frame I:1115  Avg QP:10.58  size: 61640
x264 [info]: frame P:28745 Avg QP:12.66  size: 22208
x264 [info]: frame B:101994 Avg QP:13.32  size:  7014
x264 [info]: consecutive B-frames:  3.0%  2.0%  6.6% 20.5% 17.9% 38.9%  4.4%  1.0%  1.0%  0.6%  0.3%  0.2%  0.3%  0.5%  2.8%
x264 [info]: mb I  I16..4: 12.1% 64.8% 23.1%
x264 [info]: mb P  I16..4:  3.9% 19.4%  3.0%  P16..4: 28.6% 22.1% 16.3%  0.0%  0.0%    skip: 6.8%
x264 [info]: mb B  I16..4:  0.8%  2.9%  0.3%  B16..8: 27.5% 15.6%  5.9%  direct:10.3%  skip:36.7%  L0:43.4% L1:41.7% BI:14.9%
x264 [info]: 8x8 transform intra:72.8% inter:41.2%
x264 [info]: coded y,uvDC,uvAC intra: 81.2% 90.6% 86.0% inter: 29.5% 30.3% 19.8%
x264 [info]: i16 v,h,dc,p: 54% 15% 19% 12%
x264 [info]: i8 v,h,dc,ddl,ddr,vr,hd,vl,hu: 17% 12% 26%  6%  7%  8%  7%  8%  9%
x264 [info]: i4 v,h,dc,ddl,ddr,vr,hd,vl,hu: 20% 12% 14%  7% 11% 10%  9%  8%  8%
x264 [info]: i8c dc,h,v,p: 63% 16% 14%  8%
x264 [info]: Weighted P-Frames: Y:3.8% UV:2.3%
x264 [info]: ref P L0: 54.9%  7.0% 14.7%  5.2%  4.3%  3.0%  2.7%  1.5%  1.5%  1.2%  1.2%  1.0%  1.0%  0.9%  0.1%  0.0%
x264 [info]: ref B L0: 75.8%  9.7%  4.5%  2.4%  1.8%  1.5%  1.2%  0.8%  0.7%  0.6%  0.6%  0.4%  0.2%
x264 [info]: ref B L1: 95.6%  4.4%
x264 [info]: kb/s:2069.25

Правила, инструкции, FAQ!!!
Торрент  Добавлен [11 июн 2018, 09:30] Скачать торрент Магнет ссылка
Скачать торрент
[ Размер 14.96 КБ / Просмотров 13 ]

Статус
Проверен 
 
Размер  1.45 ГБ
Приватный: Нет (DHT включён)
.torrent скачан  0
Как залить торрент? | Как скачать Torrent? | Ошибка в торренте? Качайте магнет  


     Отправить личное сообщение
   
Страница 1 из 1
Показать сообщения за:  Поле сортировки  
Начать новую тему Ответить на тему

   Похожие торренты   Автор   Ответы   Просмотры   Последнее сообщение 
В этой теме нет новых непрочитанных сообщений. Скачать торрент Проверен Одичавшие / Feral (Марк Янг / Mark Young) [2017, США, ужасы, триллер, WEB-DLRip] MVO (HDrezka Studio)

в форуме Фильмы 2016-2017, Размер: 1.46 ГБ, Здоровье: 100%

Anonymous

0
15|4

9
0

11 июн 2018, 09:30

Anonymous Перейти к последнему сообщению

В этой теме нет новых непрочитанных сообщений. Скачать торрент Оттепель / The Thaw (Марк А. Льюис / Mark A. Lewis) [2009 г., ужасы, фантастика, триллер, HDRip]

в форуме Ужасы, Размер: 1.48 ГБ, Здоровье: 100%

Anonymous

0
1|0

100
2

15 апр 2014, 08:17

Anonymous Перейти к последнему сообщению

В этой теме нет новых непрочитанных сообщений. Скачать торрент Проверен Его собачье дело / Once Upon a Time in Venice (Марк Каллен, Робб Каллен / Mark Cullen, Robb Cullen) [2017, США, боевик, триллер, комедия, WEB-DLRip] Dub

в форуме Фильмы 2016-2017, Размер: 743.18 МБ, Здоровье: 0%

Anonymous

0
0|0

6
0

03 фев 2018, 19:33

Anonymous Перейти к последнему сообщению

В этой теме нет новых непрочитанных сообщений. Скачать торрент Проверен Его собачье дело / Once Upon a Time in Venice (Марк Каллен, Робб Каллен / Mark Cullen, Robb Cullen) [2017, США, Боевик, триллер, комедия, WEB-DLRip] Dub

в форуме Фильмы 2016-2017, Размер: 1.46 ГБ, Здоровье: 100%

Anonymous

0
34|11

6
0

03 фев 2018, 20:35

Anonymous Перейти к последнему сообщению

В этой теме нет новых непрочитанных сообщений. Скачать торрент Вoйна мирoв Z / Wоrld Wаr Z (Марк Форстер / Mark Forster) [2013, США, ужасы, фантастика, боевик, триллер, приключения, HDRip, 480p] Dub + Original + sub (rus, eng)

в форуме Фильмы для iPod, iPhone, iPad, Размер: 1.77 ГБ, Здоровье: 100%

Anonymous

0
2|0

122
0

28 сен 2013, 12:25

Anonymous Перейти к последнему сообщению



Сейчас этот форум просматривают: нет зарегистрированных пользователей и гости: 0


Вы не можете начинать темы
Вы не можете отвечать на сообщения
Вы не можете редактировать свои сообщения
Вы не можете удалять свои сообщения
Вы не можете добавлять вложения

Перейти:  
Ресурс не предоставляет электронные версии произведений, а занимается лишь коллекционированием и каталогизацией ссылок, присылаемых и публикуемых на форуме нашими читателями. Если вы являетесь правообладателем какого-либо представленного материала и не желаете чтобы ссылка на него находилась в нашем каталоге, свяжитесь с нами и мы незамедлительно удалим её. Файлы для обмена на трекере предоставлены пользователями сайта, и администрация не несёт ответственности за их содержание. Просьба не заливать файлы, защищенные авторскими правами, а также файлы нелегального содержания!
cron