На всех торрентах на трекере установлена скидка на скачивание в размере 100 процентов(а).
 Возможность скачивания торрента НЕ зависит от ограничений при низком ратио, низком аплоаде, требуемом ратио или требуемом аплоаде.


Начать новую тему Ответить на тему
Статистика раздачи
Размер: 1.46 ГБ | Добавлен: 11 июн 2018, 09:30 | Скачали: 0
Сидеров: 15  [0 байт/сек]    Личеров: 4  [0 байт/сек]
Пред. тема | След. тема 

Автор
Сообщение

СообщениеДобавлено: 11 июн 2018, 09:30 

Ответить с цитатой 

Одичавшие / Feral
Страна: США
Жанр: ужасы, триллер
Год выпуска: 2017
Продолжительность: 01:31:39
Перевод: Любительский (многоголосый закадровый) | HDrezka Studio
Субтитры: нет
Оригинальная аудиодорожка: нет
Режиссер:
Марк Янг / Mark Young
В ролях:
Скаут Тейлор-Комптон, Оливия Луккарди, Лью Темпл, Рени Олстэд, Брок Келли, Ландри Олбрайт, Джордж Финн, Саманта Гангал, Марк Мусаси, Лаура Вельта
Описание:
На шестерых студентов-медиков, отправившихся на уик-энд в лес, нападает некое существо. Один за другим друзья заражаются «звериной болезнью», превращаясь в бешеных кровожадных существ, и запланированный отдых оборачивается кошмаром.
Качество видео: WEB-DLRip
Формат видео: AVI
Видео: 720x304 (2.37:1), 23.976 fps, XviD build 73 ~2072 kbps avg, 0.40 bit/pixel
Аудио: 48 kHz, AC3 Dolby Digital, 2/0 (L,R) ch, ~192 kbps
Сэмпл[/spoiler]
Код:
Код:
Код:
Format                      : AVI
Format/Info                 : Audio Video Interleave
File size                   : 1.46 GiB
Duration                    : 1 h 31 min
Overall bit rate            : 2 274 kb/s
Writing application         : VirtualDubMod 1.5.10.3 | www.virtualdub-fr.org || (build 2550/release)
Writing library             : VirtualDubMod build 2550/release
Video
ID                          : 0
Format                      : MPEG-4 Visual
Format profile              : Advanced Simple@L5
Format settings             : BVOP1 / Custom Matrix
Format settings, BVOP       : 1
Format settings, QPel       : No
Format settings, GMC        : No warppoints
Format settings, Matrix     : Custom
Codec ID                    : XVID
Codec ID/Hint               : XviD
Duration                    : 1 h 31 min
Bit rate                    : 2 073 kb/s
Width                       : 720 pixels
Height                      : 304 pixels
Display aspect ratio        : 2.35:1
Frame rate                  : 23.976 (24000/1001) FPS
Color space                 : YUV
Chroma subsampling          : 4:2:0
Bit depth                   : 8 bits
Scan type                   : Progressive
Compression mode            : Lossy
Bits/(Pixel*Frame)          : 0.395
Stream size                 : 1.33 GiB (91%)
Writing library             : XviD 73
Audio
ID                          : 1
Format                      : AC-3
Format/Info                 : Audio Coding 3
Codec ID                    : 2000
Duration                    : 1 h 31 min
Bit rate mode               : Constant
Bit rate                    : 192 kb/s
Channel(s)                  : 2 channels
Channel positions           : Front: L R
Sampling rate               : 48.0 kHz
Frame rate                  : 31.250 FPS (1536 SPF)
Bit depth                   : 16 bits
Compression mode            : Lossy
Stream size                 : 126 MiB (8%)
Alignment                   : Split accross interleaves
Interleave, duration        : 42  ms (1.00 video frame)
Interleave, preload duratio : 500  ms
Service kind                : Complete Main


Правила, инструкции, FAQ!!!
Торрент  Добавлен [11 июн 2018, 09:30] Скачать торрент Магнет ссылка
Скачать торрент
[ Размер 15.02 КБ / Просмотров 12 ]

Статус
Проверен 
 
Размер  1.46 ГБ
Приватный: Нет (DHT включён)
.torrent скачан  0
Как залить торрент? | Как скачать Torrent? | Ошибка в торренте? Качайте магнет  


     Отправить личное сообщение
   
Страница 1 из 1
Показать сообщения за:  Поле сортировки  
Начать новую тему Ответить на тему

   Похожие торренты   Автор   Ответы   Просмотры   Последнее сообщение 
В этой теме нет новых непрочитанных сообщений. Скачать торрент Проверен Одичавшие / Feral (Марк Янг / Mark Young) [2017, США, ужасы, триллер, WEB-DLRip-AVC] MVO

в форуме Фильмы 2016-2017, Размер: 1.45 ГБ, Здоровье: 100%

Anonymous

0
1|0

7
0

11 июн 2018, 09:30

Anonymous Перейти к последнему сообщению

В этой теме нет новых непрочитанных сообщений. Скачать торрент Проверен Месть / Revenge (Корали Фаржеа / Coralie Fargeat) [2017, Франция, боевик, триллер, WEB-DLRip] MVO (HDrezka Studio) + Sub Eng (hardsub)

в форуме Фильмы 2016-2017, Размер: 1.46 ГБ, Здоровье: 100%

Anonymous

0
1|0

2
1

11 июн 2018, 09:27

Anonymous Перейти к последнему сообщению

В этой теме нет новых непрочитанных сообщений. Скачать торрент Проверен Бремя / Cargo (Бен Хоулинг / Ben Howling, Иоланда Рамке / Yolanda Ramke) [2017, Австралия, драма, ужасы, WEBRip] MVO (HDrezka Studio)

в форуме Фильмы 2016-2017, Размер: 1.46 ГБ, Здоровье: 0%

Anonymous

0
0|0

2
0

11 июн 2018, 09:28

Anonymous Перейти к последнему сообщению

В этой теме нет новых непрочитанных сообщений. Скачать торрент Проверен Чистокровные / Thoroughbreds (Кори Финли / Cory Finley) [2017, США, триллер, драма, BDRip] MVO (HDrezka Studio)

в форуме Фильмы 2016-2017, Размер: 1.46 ГБ, Здоровье: 100%

Anonymous

0
35|11

12
1

11 июн 2018, 09:30

Anonymous Перейти к последнему сообщению

В этой теме нет новых непрочитанных сообщений. Скачать торрент Проверен Настоящее преступление / Dark Crimes / True Crimes (Александрос Авранас / Alexandros Avranas) [2016, Великобритания, Польша, США, триллер, драма, криминал, WEB-DLRip] MVO (HDrezka Studio)

в форуме Фильмы 2016-2017, Размер: 1.45 ГБ, Здоровье: 0%

Anonymous

0
0|0

2
0

11 июн 2018, 09:29

Anonymous Перейти к последнему сообщению



Сейчас этот форум просматривают: нет зарегистрированных пользователей и гости: 0


Вы не можете начинать темы
Вы не можете отвечать на сообщения
Вы не можете редактировать свои сообщения
Вы не можете удалять свои сообщения
Вы не можете добавлять вложения

Перейти:  
Ресурс не предоставляет электронные версии произведений, а занимается лишь коллекционированием и каталогизацией ссылок, присылаемых и публикуемых на форуме нашими читателями. Если вы являетесь правообладателем какого-либо представленного материала и не желаете чтобы ссылка на него находилась в нашем каталоге, свяжитесь с нами и мы незамедлительно удалим её. Файлы для обмена на трекере предоставлены пользователями сайта, и администрация не несёт ответственности за их содержание. Просьба не заливать файлы, защищенные авторскими правами, а также файлы нелегального содержания!
cron