На всех торрентах на трекере установлена скидка на скачивание в размере 100 процентов(а).
 Возможность скачивания торрента НЕ зависит от ограничений при низком ратио, низком аплоаде, требуемом ратио или требуемом аплоаде.


Начать новую тему Ответить на тему
Статистика раздачи
Размер: 10.54 ГБ | Добавлен: 08 июл 2017, 19:05 | Скачали: 136
Сидеров: 115  [0 байт/сек]    Личеров: 148  [0 байт/сек]
Пред. тема | След. тема 

Автор
Сообщение

СообщениеДобавлено: 08 июл 2017, 19:05 

Ответить с цитатой 

Название: Обещание
Оригинальное название: The Promise
Год выхода: 2016
Жанр: Драма, история
Режиссер: Терри Джордж
В ролях: Кристиан Бэйл, Оскар Айзек, Шоре Агдашлу, Анджела Сарафян, Шарлотта Ле Бон, Джеймс Кромуэлл, Жан Рено, Том Холландер, Нуман Акар, Раде Шербеджия

О фильме:
1914 год. Первая Мировая война набирает обороты. Великая Османская империя терпит крах, а Константинополь на глазах погружается в хаос. Студент-медик Микаэль Богосян в городе проездом. Он намерен развивать современную медицину в родной деревне на юге Турции, где турецкие мусульмане и армянские христиане веками мирно живут бок о бок. Фотокорреспондента Криса Майерса в Константинополь привела не столько работа, сколько пламенное чувство к армянской художнице Ане. Микаэль также очарован Аной, но соперничество между мужчинами сходит на нет, когда Империя начинает жестоко преследовать национальные меньшинства. Обещания даются и нарушаются… Но одно нельзя не сдержать - обещание выжить и поведать миру правдивую историю.



Страна: Испания, США
Студия: Babieka, Rafael Catering, Survival Pictures, Wonderful Films
Продолжительность: 02:13:07
Перевод: Дублированный | iTunes


Качество: BDRip 1080p
Видео: MPEG-4 AVC, 1920x800, 9443 Кbit/s, 23.976 fps
Звук:
Аудио #01: 48 kHz, AC3, 5.1, 384 Kbps | Дублированный | iTunes | RUS |
Аудио #02: 48 kHz, DTS, 5.1, 1510 Kbps | Оригинал | ENG |
Субтитры: Английские



General
Unique ID : 183925669462189619336290102345907531814 (0x8A5ECBA1AF67B49C98D8BDDEB9737026)
Complete name : C:UsersbattiDesktopThe.Promise.2016.BDRip.1080p.ExKinoRay.mkv
Format : Matroska
Format version : Version 4 / Version 2
File size : 10.5 GiB
Duration : 2 h 13 min
Overall bit rate : 11.3 Mb/s
Encoded date : UTC 2017-07-08 12:23:49
Writing application : mkvmerge v13.0.0 ('The Juggler') 64bit
Writing library : libebml v1.3.4 + libmatroska v1.4.5

Video
ID : 1
Format : AVC
Format/Info : Advanced Video Codec
Format profile : High@L4.1
Format settings, CABAC : Yes
Format settings, ReFrames : 4 frames
Codec ID : V_MPEG4/ISO/AVC
Duration : 2 h 13 min
Bit rate : 9 443 kb/s
Width : 1 920 pixels
Height : 800 pixels
Display aspect ratio : 2.40:1
Frame rate mode : Constant
Frame rate : 23.976 (24000/1001) FPS
Color space : YUV
Chroma subsampling : 4:2:0
Bit depth : 8 bits
Scan type : Progressive
Bits/(Pixel*Frame) : 0.256
Stream size : 8.78 GiB (83%)
Writing library : x264 core 149 r2771+45 509cceb 7mod [8-bit@all X86_64]
Encoding settings : cabac=1 / ref=4 / deblock=1:-3:-3 / analyse=0x3:0x113 / me=umh / subme=10 / psy=1 / fade_compensate=0.00 / psy_rd=0.90:0.10 / mixed_ref=1 / me_range=48 / chroma_me=1 / trellis=2 / 8x8dct=1 / cqm=0 / deadzone=21,11 / fast_pskip=0 / chroma_qp_offset=-2 / threads=12 / lookahead_threads=2 / sliced_threads=0 / nr=0 / decimate=1 / interlaced=0 / bluray_compat=0 / constrained_intra=0 / fgo=0 / bframes=8 / b_pyramid=2 / b_adapt=2 / b_bias=0 / direct=3 / weightb=1 / open_gop=0 / weightp=2 / keyint=250 / keyint_min=23 / scenecut=40 / intra_refresh=0 / rc_lookahead=40 / rc=crf / mbtree=0 / crf=20.0000 / qcomp=0.70 / qpmin=0:0:0 / qpmax=69:69:69 / qpstep=4 / vbv_maxrate=35000 / vbv_bufsize=35000 / crf_max=0.0 / nal_hrd=none / filler=0 / ip_ratio=1.40 / pb_ratio=1.30 / aq=3:1.00 / aq-sensitivity=10.00 / aq-factor=1.00:1.00:1.00 / aq2=0 / aq3=2:[0.50:0.50]:[0.50:0.50]:[0.50:0.50]:[0.50:0.50] / aq3-sensitivity=10.00 / aq3-factor=[1.00:1.00]:[1.00:1.00]:[1.00:1.00] / aq3-boundary=192:64:24
Language : English
Default : Yes
Forced : No
Color range : Limited
Matrix coefficients : BT.709

Audio #1
ID : 2
Format : AC-3
Format/Info : Audio Coding 3
Format settings, Endianness : Big
Codec ID : A_AC3
Duration : 2 h 13 min
Bit rate mode : Constant
Bit rate : 384 kb/s
Channel(s) : 6 channels
Channel positions : Front: L C R, Side: L R, LFE
Sampling rate : 48.0 kHz
Frame rate : 31.250 FPS (1536 spf)
Bit depth : 16 bits
Compression mode : Lossy
Stream size : 366 MiB (3%)
Title : iTunes
Language : Russian
Service kind : Complete Main
Default : Yes
Forced : No

Audio #2
ID : 3
Format : DTS
Format/Info : Digital Theater Systems
Mode : 16
Format settings, Endianness : Big
Codec ID : A_DTS
Duration : 2 h 13 min
Bit rate mode : Constant
Bit rate : 1 509 kb/s
Channel(s) : 6 channels
Channel positions : Front: L C R, Side: L R, LFE
Sampling rate : 48.0 kHz
Frame rate : 93.750 FPS (512 spf)
Bit depth : 24 bits
Compression mode : Lossy
Stream size : 1.40 GiB (13%)
Title : Original
Language : English
Default : No
Forced : No

Text
ID : 4
Format : UTF-8
Codec ID : S_TEXT/UTF8
Codec ID/Info : UTF-8 Plain Text
Duration : 2 h 2 min
Bit rate : 38 b/s
Count of elements : 1143
Stream size : 34.8 KiB (0%)
Title : Full
Language : English
Default : No
Forced : No

Menu
00:00:00.000 : en:Chapter 1
00:05:25.992 : en:Chapter 2
00:11:53.421 : en:Chapter 3
00:15:46.946 : en:Chapter 4
00:21:24.908 : en:Chapter 5
00:24:10.031 : en:Chapter 6
00:28:40.301 : en:Chapter 7
00:31:35.560 : en:Chapter 8
00:34:20.641 : en:Chapter 9
00:37:50.643 : en:Chapter 10
00:41:40.748 : en:Chapter 11
00:44:27.373 : en:Chapter 12
00:47:33.308 : en:Chapter 13
00:49:05.692 : en:Chapter 14
00:51:20.368 : en:Chapter 15
00:54:38.483 : en:Chapter 16
00:59:25.520 : en:Chapter 17
01:01:04.744 : en:Chapter 18
01:06:44.000 : en:Chapter 19
01:10:50.329 : en:Chapter 20
01:13:06.131 : en:Chapter 21
01:17:41.365 : en:Chapter 22
01:21:53.742 : en:Chapter 23
01:24:12.422 : en:Chapter 24
01:27:24.530 : en:Chapter 25
01:29:39.082 : en:Chapter 26
01:34:45.680 : en:Chapter 27
01:38:32.907 : en:Chapter 28


Релиз от: Автор релиза:
загрузка...
Правила, инструкции, FAQ!!!
Торрент  Добавлен [08 июл 2017, 19:05] Скачать торрент Магнет ссылка
Скачать торрент
[ Размер 53.72 КБ / Просмотров 15 ]

Статус
Проверен 
 
Размер  10.54 ГБ
Приватный: Нет (DHT включён)
.torrent скачан  136
Как залить торрент? | Как скачать Torrent? | Ошибка в торренте? Качайте магнет  


     Отправить личное сообщение
   
Страница 1 из 1
Показать сообщения за:  Поле сортировки  
Начать новую тему Ответить на тему

   Похожие торренты   Автор   Ответы   Просмотры   Последнее сообщение 
В этой теме нет новых непрочитанных сообщений. Скачать торрент Проверен Обещание / The Promise (Терри Джордж / Terry George) [2016, Испания, США, драма, история, BDRip] Dub

в форуме Фильмы 2016-2017, Размер: 1.46 ГБ, Здоровье: 0%

Anonymous

0
0|0

16
0

03 фев 2018, 19:06

Anonymous Перейти к последнему сообщению

В этой теме нет новых непрочитанных сообщений. Скачать торрент Проверен Обещание / The Promise (2016) HDRip | D

в форуме Драмы, Мелодрамы, Размер: 1.46 ГБ, Здоровье: 100%

Гость

0
49|26

175
69

08 июл 2017, 01:21

Гость Перейти к последнему сообщению

В этой теме нет новых непрочитанных сообщений. Скачать торрент Проверен Обещание / The Promise (Терри Джордж / Terry George) [2016, Испания, США, драма, история, HDRip-AVC] Dub

в форуме Фильмы 2016-2017, Размер: 1.44 ГБ, Здоровье: 100%

Anonymous

0
34|11

18
0

03 фев 2018, 19:32

Anonymous Перейти к последнему сообщению

В этой теме нет новых непрочитанных сообщений. Закрыто правообладателем Прибытие / Arrival (2016) BDRip 1080p | iTunes Данный торрент является блокированным, причина: Закрыто правообладателем

в форуме 720p | 1080p, Размер: 10.07 ГБ, Здоровье: 100%

Гость

0
1694|126

164
613

03 фев 2017, 01:02

Гость Перейти к последнему сообщению

В этой теме нет новых непрочитанных сообщений. Скачать торрент Проверен Жмот / Radin ! (2016) BDRip 1080p | iTunes

в форуме 720p | 1080p, Размер: 5.96 ГБ, Здоровье: 100%

Гость

0
798|87

140
2915

01 июл 2017, 23:26

Гость Перейти к последнему сообщению



Сейчас этот форум просматривают: нет зарегистрированных пользователей и гости: 1


Вы не можете начинать темы
Вы не можете отвечать на сообщения
Вы не можете редактировать свои сообщения
Вы не можете удалять свои сообщения
Вы не можете добавлять вложения

Перейти:  
Ресурс не предоставляет электронные версии произведений, а занимается лишь коллекционированием и каталогизацией ссылок, присылаемых и публикуемых на форуме нашими читателями. Если вы являетесь правообладателем какого-либо представленного материала и не желаете чтобы ссылка на него находилась в нашем каталоге, свяжитесь с нами и мы незамедлительно удалим её. Файлы для обмена на трекере предоставлены пользователями сайта, и администрация не несёт ответственности за их содержание. Просьба не заливать файлы, защищенные авторскими правами, а также файлы нелегального содержания!
cron