На всех торрентах на трекере установлена скидка на скачивание в размере 100 процентов(а).
 Возможность скачивания торрента НЕ зависит от ограничений при низком ратио, низком аплоаде, требуемом ратио или требуемом аплоаде.


Начать новую тему Ответить на тему
Статистика раздачи
Размер: 6.46 ГБ | Добавлен: 17 окт 2015, 18:30 | Скачали: 22
Сидеров: 13  [0 байт/сек]    Личеров: 4  [0 байт/сек]
Пред. тема | След. тема 

Автор
Сообщение

СообщениеДобавлено: 17 окт 2015, 18:30 

Ответить с цитатой 

Название: Ночь в музее
Оригинальное название: Night at the Museum
Год выхода: 2006
Жанр: фэнтези, боевик, комедия, приключения, семейный
Режиссер: Шон Леви
В ролях: Бен Стиллер, Джэйк Черри, Карла Гуджино, Робин Уильямс, Стив Куган, Оуэн Уилсон, Дик Ван Дайк, Микки Руни, Билл Коббс, Рики Джервэйс

О фильме:
Молодой человек в поисках работы попадает в музей, где приступает к обязанностям ночного сторожа. Оказывается, не такая это простая работа, как могло показаться на первый взгляд. Ведь самое главное — не только не дать никому войти в музей, но и не позволить никому и ничему из музея выйти…
#777 http://s7.hostingkartinok.com/uploads/images/2014/12/4093c1bdcc0088d4a01a016b71491276.gif

Страна: США, Великобритания
Студия: 20th Century Fox Film Corporation, Ingenious Media
Продолжительность: 104 мин. / 01:44
Перевод: полное дублирование

Файл
Кодек: MPEG2
Качество: DVD9 "Двадцатый Век Фокс СНГ"
Видео: PAL 16:9 (720x576@1024x576) VBR 5311 Kbps, 25.000 fps
Аудио 1: Dolby AC3, 6 ch, 48.0 KHz, 448 Kbps (английский)
Аудио 2: Dolby AC3, 6 ch, 48.0 KHz, 384 Kbps (русский)
Аудио 3: Dolby AC3, 2 ch, 48.0 KHz, 192 Kbps (комментарии)
Аудио 4: DTS 6 ch, 48.0 KHz, 768 Kbps (русский)
Субтитры: русские, украинские, английские, казахские, эстонские, латышские, литовские

[*]8 удаленных сцен с комментариями Шона Леви и Бена СтиллераАльтернативное началоРолик с ляпами фильмаГоловоломка "Кости Рекси""Обезьяньи фокусы": работа с животными
Общее
Полное имя : D:NIGHT AT THE MUSEUMVIDEO_TSVTS_01_1.VOB
Формат : MPEG-PS
Размер файла : 1024 Мбайт
Продолжительность : 19 м.
Режим общего битрейта : Переменный
Общий поток : 7233 Кбит/сек

Видео
Идентификатор : 224 (0xE0)
Формат : MPEG Video
Версия формата : Version 2
Профиль формата : Main@Main
Параметр BVOP формата : Да
Параметр матрицы формата : Выборочная
Параметр GOP формата : M=3, N=15
Продолжительность : 19 м.
Вид битрейта : Переменный
Битрейт : 5311 Кбит/сек
Максимальный битрейт : 7500 Кбит/сек
Ширина : 720 пикселей
Высота : 576 пикселей
Соотношение сторон : 16:9
Частота кадров : 25,000 кадров/сек
Стандарт вещания : PAL
Цветовое пространство : YUV
Субдискретизация насыщенности : 4:2:0
Битовая глубина : 8 бит
Тип развёртки : Прогрессивная
Порядок развёртки : Верхнее поле первое
Метод сжатия : С потерями
Бит/(Пиксели*Кадры) : 0.512
Временной код первого кадра : 00:59:59:00
Оригинал временного кода : Group of pictures header
GOP, открыто/закрыто : Открыто
GOP, открыто/закрыто на первом кадре : Закрыто
Размер потока : 752 Мбайт (73%)

Аудио #1
Идентификатор : 189 (0xBD)-128 (0x80)
Формат : AC-3
Формат/Информация : Audio Coding 3
Расширение режима : CM (complete main)
Параметр Endianness формата : Big
Режим смешивания : DVD-Video
Продолжительность : 19 м.
Вид битрейта : Постоянный
Битрейт : 448 Кбит/сек
Каналы : 6 каналов
Расположение каналов : Front: L C R, Side: L R, LFE
Частота : 48,0 КГц
Метод сжатия : С потерями
Задержка видео : -8 мс.
Размер потока : 63,4 Мбайт (6%)

Аудио #2
Идентификатор : 189 (0xBD)-129 (0x81)
Формат : AC-3
Формат/Информация : Audio Coding 3
Расширение режима : CM (complete main)
Параметр Endianness формата : Big
Режим смешивания : DVD-Video
Продолжительность : 19 м.
Вид битрейта : Постоянный
Битрейт : 384 Кбит/сек
Каналы : 6 каналов
Расположение каналов : Front: L C R, Side: L R, LFE
Частота : 48,0 КГц
Метод сжатия : С потерями
Задержка видео : -8 мс.
Размер потока : 54,4 Мбайт (5%)

Аудио #3
Идентификатор : 189 (0xBD)-131 (0x83)
Формат : AC-3
Формат/Информация : Audio Coding 3
Расширение режима : CM (complete main)
Параметр Endianness формата : Big
Режим смешивания : DVD-Video
Продолжительность : 19 м.
Вид битрейта : Постоянный
Битрейт : 192 Кбит/сек
Каналы : 2 канала
Расположение каналов : Front: L R
Частота : 48,0 КГц
Метод сжатия : С потерями
Задержка видео : -8 мс.
Размер потока : 27,2 Мбайт (3%)

Аудио #4
Идентификатор : 189 (0xBD)-138 (0x8A)
Формат : DTS
Формат/Информация : Digital Theater Systems
Режим : 16
Параметр Endianness формата : Big
Режим смешивания : DVD-Video
Продолжительность : 19 м.
Вид битрейта : Постоянный
Битрейт : 755 Кбит/сек
Каналы : 6 каналов
Расположение каналов : Front: L C R, Side: L R, LFE
Частота : 48,0 КГц
Битовая глубина : 24 бит
Метод сжатия : С потерями
Задержка видео : -8 мс.
Размер потока : 107 Мбайт (10%)

Текст
Идентификатор : 189 (0xBD)-40 (0x28)
Формат : RLE
Формат/Информация : Run-length encoding
Режим смешивания : DVD-Video
Продолжительность : 19 м.
Задержка видео : 2 с. 560 мс.

Меню

Правила, инструкции, FAQ!!!
Торрент  Добавлен [17 окт 2015, 18:30] Скачать торрент Магнет ссылка
Скачать торрент
[ Размер 34.23 КБ / Просмотров 24 ]

Статус
Проверен 
 
Размер  6.46 ГБ
Приватный: Нет (DHT включён)
.torrent скачан  22
Как залить торрент? | Как скачать Torrent? | Ошибка в торренте? Качайте магнет  
загрузка...


     Отправить личное сообщение
   
Страница 1 из 1
Показать сообщения за:  Поле сортировки  
Начать новую тему Ответить на тему

   Похожие торренты   Автор   Ответы   Просмотры   Последнее сообщение 
В этой теме нет новых непрочитанных сообщений. Скачать торрент Проверен [XBOX360] Night at the Museum: Battle of the Smithsonian / Ночь в музее 2 [Freeboot / RUS]

в форуме XBOX 360, Размер: 3.02 ГБ, Здоровье: 100%

Anonymous

0
29|10

111
2

05 мар 2017, 12:35

Anonymous Перейти к последнему сообщению

В этой теме нет новых непрочитанных сообщений. Ночь в музее: Секрет гробницы / Night at the Museum: Secret of the Tomb (2014) HDRip | Чистый звук

в форуме Новинки кино, Размер: 1.36 ГБ, Здоровье: 100%

Гость

0
300|1

4778
7

26 фев 2015, 18:56

Гость Перейти к последнему сообщению

В этой теме нет новых непрочитанных сообщений. Ночь в музее: Секрет гробницы / Night at the Museum: Secret of the Tomb (2014) BDRip 720p | Чистый звук

в форуме Новинки кино, Размер: 4.6 ГБ, Здоровье: 6%

Гость

0
103|1593

4843
127

26 фев 2015, 18:52

Гость Перейти к последнему сообщению

В этой теме нет новых непрочитанных сообщений. Скачать торрент Проверен Стил Майкл Энтони / Michael Anthony Steele - Ночь в музее 2. Смитсоновская битва / Night at the Museum: Battle of the Smithsonian [2009, rtf, fb2]

в форуме Фантастика, фэнтези, Размер: 1.56 МБ, Здоровье: 100%

Anonymous

0
2|1

34
0

11 июн 2017, 18:13

Anonymous Перейти к последнему сообщению

В этой теме нет новых непрочитанных сообщений. Скачать торрент Проверен [iPad] Ночь в музее 2 / Night at the Museum: Battle of the Smithsonian (Шон Леви / Shawn Levy) [2009 г., фэнтези, комедия, приключения, семейный, BDRip 720p]

в форуме Фильмы для iPod, iPhone, iPad, Размер: 2.05 ГБ, Здоровье: 100%

Гость

0
36|13

1279
1

11 май 2015, 01:24

Гость Перейти к последнему сообщению



Сейчас этот форум просматривают: нет зарегистрированных пользователей и гости: 1


Вы не можете начинать темы
Вы не можете отвечать на сообщения
Вы не можете редактировать свои сообщения
Вы не можете удалять свои сообщения
Вы не можете добавлять вложения

Перейти:  
Ресурс не предоставляет электронные версии произведений, а занимается лишь коллекционированием и каталогизацией ссылок, присылаемых и публикуемых на форуме нашими читателями. Если вы являетесь правообладателем какого-либо представленного материала и не желаете чтобы ссылка на него находилась в нашем каталоге, свяжитесь с нами и мы незамедлительно удалим её. Файлы для обмена на трекере предоставлены пользователями сайта, и администрация не несёт ответственности за их содержание. Просьба не заливать файлы, защищенные авторскими правами, а также файлы нелегального содержания!
cron