На всех торрентах на трекере установлена скидка на скачивание в размере 100 процентов(а).
 Возможность скачивания торрента НЕ зависит от ограничений при низком ратио, низком аплоаде, требуемом ратио или требуемом аплоаде.


Начать новую тему Ответить на тему
Статистика раздачи
Размер: 440.79 МБ | Добавлен: 06 янв 2017, 19:33 | Скачали: 0
Сидеров: 0  [0 байт/сек]    Личеров: 0  [0 байт/сек]
Пред. тема | След. тема 

Автор
Сообщение

СообщениеДобавлено: 06 янв 2017, 19:33 

Ответить с цитатой 

Dean Evenson - Сны океана (Ocean Dreams)

Жанр: New Age, Downtempo, Nature
Format: CD, Album
Country: Russia
Label: Правительство звука
Cat. #: ПРЗ CD50838
Серия: "Музыка для жизни"
Дата релиза: 2005
По discogs: http://www.discogs.com/release/3899552
Источник снятия рипа: Диск из собственной коллекции*
Оригинальный риппер и релизер: *
Способ получения рипа: Использование рекомендованной правилами программы-риппера*
Аудио кодек: FLAC
Битрейт: lossless
Типа рипа: tracks+.cue
Наличие сканов в раздаче: Да (600dpi, PNG)
Продолжительность: 59:54

Tracklist:
01. Will You Hear Me (13:25)
02. Lighten Up (4:30)
03. Far Away Within (9:43)
04. Native Tongue (2:39)
05. Deeper Sanctuary (10:45)
06. Floating On Earth (4:44)
07. Seasonging (4:50)
08. Lightly Salted (4:53)
09. Smooth Driftin (4:24)

Код:
Exact Audio Copy V1.0 beta 3 from 29. August 2011

EAC extraction logfile from 25. September 2012, 14:36

Dean Evenson / Сны океана

Used drive  : HL-DT-STDVDRAM GH22NS70   Adapter: 1  ID: 0

Read mode               : Secure
Utilize accurate stream : Yes
Defeat audio cache      : Yes
Make use of C2 pointers : No

Read offset correction                      : 667
Overread into Lead-In and Lead-Out          : No
Fill up missing offset samples with silence : Yes
Delete leading and trailing silent blocks   : No
Null samples used in CRC calculations       : Yes
Used interface                              : Native Win32 interface for Win NT & 2000
Gap handling                                : Appended to previous track

Used output format              : User Defined Encoder
Selected bitrate                : 1024 kBit/s
Quality                         : High
Add ID3 tag                     : No
Command line compressor         : C:\Program Files (x86)\Exact Audio Copy\Flac\flac.exe
Additional command line options : -8 -V -T "ARTIST=%artist%" -T "TITLE=%title%" -T "ALBUM=%albumtitle%" -T "DATE=%year%" -T "TRACKNUMBER=%tracknr%" -T "GENRE=%genre%" -T "COMMENT=ripped by DrStandBy" %source%

TOC of the extracted CD

     Track |   Start  |  Length  | Start sector | End sector
    ---------------------------------------------------------
        1  |  0:00.00 | 13:24.52 |         0    |    60351
        2  | 13:24.52 |  4:29.73 |     60352    |    80599
        3  | 17:54.50 |  9:43.37 |     80600    |   124361
        4  | 27:38.12 |  2:39.28 |    124362    |   136314
        5  | 30:17.40 | 10:44.72 |    136315    |   184686
        6  | 41:02.37 |  4:44.08 |    184687    |   205994
        7  | 45:46.45 |  4:50.05 |    205995    |   227749
        8  | 50:36.50 |  4:53.10 |    227750    |   249734
        9  | 55:29.60 |  4:24.33 |    249735    |   269567

Track  1

     Filename G:\2005 - Dean Evenson - Сны океана (ПРЗ CD50838)\01. Dean Evenson - Will You Hear Me.wav

     Pre-gap length  0:00:02.00

     Peak level 96.6 %
     Extraction speed 1.2 X
     Track quality 100.0 %
     Test CRC 9AE2B970
     Copy CRC 9AE2B970
     Track not present in AccurateRip database
     Copy OK

Track  2

     Filename G:\2005 - Dean Evenson - Сны океана (ПРЗ CD50838)\02. Dean Evenson - Lighten Up.wav

     Peak level 95.1 %
     Extraction speed 1.4 X
     Track quality 100.0 %
     Test CRC 4FDEB89D
     Copy CRC 4FDEB89D
     Track not present in AccurateRip database
     Copy OK

Track  3

     Filename G:\2005 - Dean Evenson - Сны океана (ПРЗ CD50838)\03. Dean Evenson - Far Away Within.wav

     Peak level 96.6 %
     Extraction speed 1.7 X
     Track quality 100.0 %
     Test CRC B16C2322
     Copy CRC B16C2322
     Track not present in AccurateRip database
     Copy OK

Track  4

     Filename G:\2005 - Dean Evenson - Сны океана (ПРЗ CD50838)\04. Dean Evenson - Native Tongue.wav

     Peak level 74.4 %
     Extraction speed 1.3 X
     Track quality 99.9 %
     Test CRC 6FEF6E61
     Copy CRC 6FEF6E61
     Track not present in AccurateRip database
     Copy OK

Track  5

     Filename G:\2005 - Dean Evenson - Сны океана (ПРЗ CD50838)\05. Dean Evenson - Deeper Sanctuary.wav

     Peak level 93.9 %
     Extraction speed 1.9 X
     Track quality 100.0 %
     Test CRC A3636271
     Copy CRC A3636271
     Track not present in AccurateRip database
     Copy OK

Track  6

     Filename G:\2005 - Dean Evenson - Сны океана (ПРЗ CD50838)\06. Dean Evenson - Floating On Earth.wav

     Peak level 80.4 %
     Extraction speed 1.9 X
     Track quality 100.0 %
     Test CRC 44486BBF
     Copy CRC 44486BBF
     Track not present in AccurateRip database
     Copy OK

Track  7

     Filename G:\2005 - Dean Evenson - Сны океана (ПРЗ CD50838)\07. Dean Evenson - Seasonging.wav

     Peak level 86.2 %
     Extraction speed 1.6 X
     Track quality 99.9 %
     Test CRC FE2D90EA
     Copy CRC FE2D90EA
     Track not present in AccurateRip database
     Copy OK

Track  8

     Filename G:\2005 - Dean Evenson - Сны океана (ПРЗ CD50838)\08. Dean Evenson - Lightly Salted.wav

     Peak level 89.1 %
     Extraction speed 1.9 X
     Track quality 99.9 %
     Test CRC B5970F07
     Copy CRC B5970F07
     Track not present in AccurateRip database
     Copy OK

Track  9

     Filename G:\2005 - Dean Evenson - Сны океана (ПРЗ CD50838)\09. Dean Evenson - Smooth Driftin.wav

     Peak level 91.2 %
     Extraction speed 2.2 X
     Track quality 100.0 %
     Test CRC 9AD225CC
     Copy CRC 9AD225CC
     Track not present in AccurateRip database
     Copy OK

None of the tracks are present in the AccurateRip database

No errors occurred

End of status report

---- CUETools DB Plugin V2.1.4

[CTDB TOCID: 9V_4xHfQQG2uPrBebdyJxqogOnw-] database access error: В документе XML (2, 2) присутствует ошибка.

==== Log checksum C512EA6AD054025B993FCC2D8AD35FB6CBB825874F17F56C8B80C9022C74B074 ====
Код:
REM GENRE "New Age, Instrumental"
REM DATE 2005
REM DISCID 7B0E0A09
REM COMMENT "ExactAudioCopy v1.0b3"
PERFORMER "Dean Evenson"
TITLE "Сны океана"
FILE "01. Dean Evenson - Will You Hear Me.wav" WAVE
  TRACK 01 AUDIO
    TITLE "Will You Hear Me"
    PERFORMER "Dean Evenson"
    FLAGS DCP
    INDEX 01 00:00:00
FILE "02. Dean Evenson - Lighten Up.wav" WAVE
  TRACK 02 AUDIO
    TITLE "Lighten Up"
    PERFORMER "Dean Evenson"
    FLAGS DCP
    INDEX 01 00:00:00
FILE "03. Dean Evenson - Far Away Within.wav" WAVE
  TRACK 03 AUDIO
    TITLE "Far Away Within"
    PERFORMER "Dean Evenson"
    FLAGS DCP
    INDEX 01 00:00:00
FILE "04. Dean Evenson - Native Tongue.wav" WAVE
  TRACK 04 AUDIO
    TITLE "Native Tongue"
    PERFORMER "Dean Evenson"
    FLAGS DCP
    INDEX 01 00:00:00
FILE "05. Dean Evenson - Deeper Sanctuary.wav" WAVE
  TRACK 05 AUDIO
    TITLE "Deeper Sanctuary"
    PERFORMER "Dean Evenson"
    FLAGS DCP
    INDEX 01 00:00:00
FILE "06. Dean Evenson - Floating On Earth.wav" WAVE
  TRACK 06 AUDIO
    TITLE "Floating On Earth"
    PERFORMER "Dean Evenson"
    FLAGS DCP
    INDEX 01 00:00:00
FILE "07. Dean Evenson - Seasonging.wav" WAVE
  TRACK 07 AUDIO
    TITLE "Seasonging"
    PERFORMER "Dean Evenson"
    FLAGS DCP
    INDEX 01 00:00:00
FILE "08. Dean Evenson - Lightly Salted.wav" WAVE
  TRACK 08 AUDIO
    TITLE "Lightly Salted"
    PERFORMER "Dean Evenson"
    FLAGS DCP
    INDEX 01 00:00:00
FILE "09. Dean Evenson - Smooth Driftin.wav" WAVE
  TRACK 09 AUDIO
    TITLE "Smooth Driftin"
    PERFORMER "Dean Evenson"
    FLAGS DCP
    INDEX 01 00:00:00


С целью наибольшей информативности оформления, добавлены поля, отмеченные звездочками, которые являются согласно правилам "строго обязательными". Посему во избежание продолжения "буквоедства" и необоснованных статусов по отношению к содержимому раздачи, указанные поля добавлены в шаблон используемый мной. При этом напоминаю, что и без указанных полей информация о источнике рипа и оригинальном релизере может быть подчерпнута, в полной мере, из оформления, а именно:- информация о источнике (ссылка на дискогс, сканы в раздаче)
- информация о оригинальном риппере и релизере (лог в строке кодера и как следствие в тегах).

Релиз от
загрузка...
Правила, инструкции, FAQ!!!
Торрент  Добавлен [06 янв 2017, 19:33] Скачать торрент Магнет ссылка
Скачать торрент
[ Размер 18.83 КБ / Просмотров 0 ]

Статус
Проверен 
 
Размер  440.79 МБ
Приватный: Нет (DHT включён)
.torrent скачан  0
Как залить торрент? | Как скачать Torrent? | Как смотреть и слушать онлайн?  


     Отправить личное сообщение
   
Страница 1 из 1
Показать сообщения за:  Поле сортировки  
Начать новую тему Ответить на тему

   Похожие торренты   Автор   Ответы   Просмотры   Последнее сообщение 
В этой теме нет новых непрочитанных сообщений. Скачать торрент Проверен (New Age, Downtempo, Nature) Dean Evenson - Forest Rain - 2004 (Russian release), FLAC (tracks+.cue), lossless

в форуме Instrumental/New Age/Meditative/Relax, Размер: 514.07 МБ, Здоровье: 0%

Anonymous

0
0|0

1
0

06 янв 2017, 21:06

Anonymous Перейти к последнему сообщению

В этой теме нет новых непрочитанных сообщений. Скачать торрент Проверен (New Age) Dean Evenson - Dreamstreams - 2005 (1996), FLAC (tracks+.cue), lossless

в форуме Instrumental/New Age/Meditative/Relax, Размер: 402.55 МБ, Здоровье: 0%

Anonymous

0
0|0

1
0

06 янв 2017, 21:08

Anonymous Перейти к последнему сообщению

В этой теме нет новых непрочитанных сообщений. Скачать торрент Проверен (New-Age, Meditative) Dean Evenson & Soundings Ensemble: Sound Yoga (lossless) - 2005, FLAC (image + .cue), lossless

в форуме Instrumental/New Age/Meditative/Relax, Размер: 294.96 МБ, Здоровье: 0%

Anonymous

0
0|0

2
0

06 янв 2017, 21:05

Anonymous Перейти к последнему сообщению

В этой теме нет новых непрочитанных сообщений. Скачать торрент Проверен (Meditative, Electronic) David Miles Huber - Ocean Dreams (Relaxation & Meditation With Music & Nature) - 1994, FLAC (image+.cue), lossless

в форуме Instrumental/New Age/Meditative/Relax, Размер: 280.22 МБ, Здоровье: 100%

Anonymous

0
3|1

14
0

06 янв 2017, 22:17

Anonymous Перейти к последнему сообщению

В этой теме нет новых непрочитанных сообщений. Скачать торрент Проверен (New Age) Dean Evenson - Desert Moon Song - 1991, FLAC (tracks+.cue), lossless

в форуме Instrumental/New Age/Meditative/Relax, Размер: 251.84 МБ, Здоровье: 0%

Anonymous

0
0|0

0
0

06 янв 2017, 21:06

Anonymous Перейти к последнему сообщению



Сейчас этот форум просматривают: нет зарегистрированных пользователей и гости: 0


Вы не можете начинать темы
Вы не можете отвечать на сообщения
Вы не можете редактировать свои сообщения
Вы не можете удалять свои сообщения
Вы не можете добавлять вложения

Перейти:  

!ВНИМАНИЕ!
 Ресурс не предоставляет электронные версии произведений, а занимается лишь коллекционированием и каталогизацией ссылок, присылаемых и публикуемых на форуме нашими читателями. Если вы являетесь правообладателем какого-либо представленного материала и не желаете чтобы ссылка на него находилась в нашем каталоге, свяжитесь с нами и мы незамедлительно удалим её. Файлы для обмена на трекере предоставлены пользователями сайта, и администрация не несёт ответственности за их содержание. Просьба не заливать файлы, защищенные авторскими правами, а также файлы нелегального содержания!