На всех торрентах на трекере установлена скидка на скачивание в размере 100 процентов(а).
 Возможность скачивания торрента НЕ зависит от ограничений при низком ратио, низком аплоаде, требуемом ратио или требуемом аплоаде.


Начать новую тему Ответить на тему
Статистика раздачи
Размер: 9.65 ГБ | Добавлен: 21 июн 2014, 23:20 | Скачали: 347
Сидеров: 56  [0 байт/сек]    Личеров: 25  [0 байт/сек]
Пред. тема | След. тема 

Автор
Сообщение

СообщениеДобавлено: 21 июн 2014, 23:20 

Ответить с цитатой 




[font=Georgia]
Невероятное путешествие мистера Спивета
L'extravagant voyage du jeune et prodigieux T.S. Spivet
The Young and Prodigious T.S. Spivet



Год выпуска: 2013
Страна: Франция, Канада (Gaumont, Epithete Films, Tapioca Films, Filmarto, ...)
Жанр: Драма, Приключения, Семейный
Продолжительность: 1:45:03

Озвучки: Любительские одноголосые закадровые - Pashaup и qwerty

Режиссер: Жан-Пьер Жёне / Jean-Pierre Jeunet



Роли исполняли:

.............

T.S. Spivet - Кайл Кэтлетт
Dr. Clair - Хелена Бонем Картер
G.H. Jibsen - Джуди Дэвис
Father - Каллум Кит Ренни
Gracie - Ниам Уилсон
Layton - Джейкоб Дейвис
Two Clouds - Доминик Пинон
Roy - Рик Мерсер
Ricky - Джулиан Ричингс
Mr. Stenpock - Ричард Жютра



Описание: История о приключениях 12-летнего гения по имени Т. С. Спивет, избранные работы которого его приятель рискнул отправить в один известный вашингтонский институт. Неожиданно Спивету звонят из этого института с приглашением приехать забрать престижную награду и заодно выступить с докладом. Мальчик сбегает из дома, но ему нужно проехать через всю страну…

Съёмки: 18 июня 2012 — 15 октября 2012
Формат изображения: 2.39:1
Камера: Arri Alexa M
PACE Fusion 3-D
Формат копии: D-Cinema (also 3-D version)
[*]Формат съёмок: ARRIRAW (1620p/24, codex)

Премьера мир (Россия): 28 сентября 2013 (30 октября 2014)





Качество: BDRip (by Ash61) с BD 3D Fre
Контейнер: MKV
Формат 3D: Half OverUnder / Вертикальная анаморфная стереопара
Порядок ракурсов: левый ракурс первый
Видео кодек: x264
Аудио кодек: AC3



Видео: AVC / 23,976 fps / 1920х1080p / 11.3 Mbps

Аудио:
#1 - Русский / AC3 / 48 KHz / 5.1 ch / 448 Kbps (VO - Pashaup)
#2 - Русский / AC3 / 48 KHz / 5.1 ch / 448 Kbps (VO - qwerty)
#3 - Английский / AC3 / 48 KHz / 5.1 ch / 640 Kbps (Original - BD 3D Fre)

Субтитры: (SRT)
Вшитые (softsub):
#1 - Русские Форсированные (перевод с BD 3D Fre) (включены по умолчанию)
#2 - Русские Полные (перевод Denniel Palmer)

Внешние (UTF-8):
#1 - Русские Форсированные (перевод с BD 3D Fre) (включены по умолчанию)

General
Unique ID : 229815657112310574525198196407321343719 (0xACE4E2B4DB75A1DC8EBB69673EF9B6E7)
Complete name : E:TheYoungAndProdigiousT.S.Spivet(2013)3D-halfOU(Ash61)VOx2TheYoungAndProdigiousT.S.Spivet(2013)3D-halfOU(Ash61)VOx2.mkv
Format : Matroska
Format version : Version 2
File size : 9.65 GiB
Duration : 1h 45mn
Overall bit rate : 13.1 Mbps
Movie name : Невероятное путешествие мистера Спивета / L'extravagant voyage du jeune et prodigieux T.S. Spivet / The Young and Prodigious T.S. Spivet (2013) 3D
Encoded date : UTC 2014-06-21 17:11:37
Writing application : mkvmerge v5.8.0 ('No Sleep / Pillow') built on Sep 2 2012 15:37:04
Writing library : libebml v1.2.3 + libmatroska v1.3.0

Video
ID : 1
Format : AVC
Format/Info : Advanced Video Codec
Format profile : High@L4.1
Format settings, CABAC : Yes
Format settings, ReFrames : 4 frames
Codec ID : V_MPEG4/ISO/AVC
Duration : 1h 45mn
Bit rate : 11.3 Mbps
Width : 1 920 pixels
Height : 1 080 pixels
Display aspect ratio : 16:9
Frame rate mode : Constant
Frame rate : 23.976 fps
Color space : YUV
Chroma subsampling : 4:2:0
Bit depth : 8 bits
Scan type : Progressive
Bits/(Pixel*Frame) : 0.228
Stream size : 8.33 GiB (86%)
Title : BDRip by Ash61
Writing library : x264 core 129 r2245 bc13772
Encoding settings : cabac=1 / ref=4 / deblock=1:-3:-3 / analyse=0x3:0x113 / me=umh / subme=10 / psy=1 / psy_rd=1.00:0.15 / mixed_ref=1 / me_range=32 / chroma_me=1 / trellis=2 / 8x8dct=1 / cqm=0 / deadzone=21,11 / fast_pskip=1 / chroma_qp_offset=-3 / threads=12 / lookahead_threads=2 / sliced_threads=0 / nr=0 / decimate=1 / interlaced=0 / bluray_compat=0 / constrained_intra=0 / bframes=9 / b_pyramid=2 / b_adapt=2 / b_bias=0 / direct=3 / weightb=1 / open_gop=0 / weightp=2 / keyint=250 / keyint_min=23 / scenecut=40 / intra_refresh=0 / rc_lookahead=60 / rc=crf / mbtree=1 / crf=17.5 / qcomp=0.70 / qpmin=0 / qpmax=69 / qpstep=4 / vbv_maxrate=40000 / vbv_bufsize=30000 / crf_max=0.0 / nal_hrd=none / frame-packing=4 / ip_ratio=1.40 / aq=1:0.70
Language : English
Default : Yes
Forced : No

Audio #1
ID : 2
Format : AC-3
Format/Info : Audio Coding 3
Mode extension : CM (complete main)
Format settings, Endianness : Big
Codec ID : A_AC3
Duration : 1h 45mn
Bit rate mode : Constant
Bit rate : 448 Kbps
Channel(s) : 6 channels
Channel positions : Front: L C R, Side: L R, LFE
Sampling rate : 48.0 KHz
Bit depth : 16 bits
Compression mode : Lossy
Stream size : 337 MiB (3%)
Title : Любительский одноголосый закадровый - Pashaup
Language : Russian
Default : Yes
Forced : No

Audio #2
ID : 3
Format : AC-3
Format/Info : Audio Coding 3
Mode extension : CM (complete main)
Format settings, Endianness : Big
Codec ID : A_AC3
Duration : 1h 45mn
Bit rate mode : Constant
Bit rate : 448 Kbps
Channel(s) : 6 channels
Channel positions : Front: L C R, Side: L R, LFE
Sampling rate : 48.0 KHz
Bit depth : 16 bits
Compression mode : Lossy
Stream size : 337 MiB (3%)
Title : Любительский одноголосый закадровый - qwerty
Language : Russian
Default : No
Forced : No

Audio #3
ID : 4
Format : AC-3
Format/Info : Audio Coding 3
Mode extension : CM (complete main)
Format settings, Endianness : Big
Codec ID : A_AC3
Duration : 1h 45mn
Bit rate mode : Constant
Bit rate : 640 Kbps
Channel(s) : 6 channels
Channel positions : Front: L C R, Side: L R, LFE
Sampling rate : 48.0 KHz
Bit depth : 16 bits
Compression mode : Lossy
Stream size : 481 MiB (5%)
Title : Original - BD 3D Fre
Language : English
Default : No
Forced : No

Text #1
ID : 5
Format : UTF-8
Codec ID : S_TEXT/UTF8
Codec ID/Info : UTF-8 Plain Text
Title : Форсированные
Language : Russian
Default : Yes
Forced : No

Text #2
ID : 6
Format : UTF-8
Codec ID : S_TEXT/UTF8
Codec ID/Info : UTF-8 Plain Text
Title : Полные - Denniel Palmer
Language : Russian
Default : No
Forced : No

Menu
00:00:00.000 : :1
00:05:48.932 : :2
00:14:55.728 : :3
00:20:51.500 : :4
00:29:59.673 : :5
00:38:31.726 : :6
00:46:13.813 : :7
00:55:29.034 : :8
01:06:40.997 : :9
01:13:58.100 : :10
01:26:25.472 : :11
01:36:23.486 : :12














загрузка...
Правила, инструкции, FAQ!!!
Торрент  Добавлен [21 июн 2014, 23:20] Скачать торрент Магнет ссылка
Скачать торрент
[ Размер 48.93 КБ / Просмотров 18 ]

Статус
Проверен 
 
Размер  9.65 ГБ
Приватный: Нет (DHT включён)
.torrent скачан  347
Как залить торрент? | Как скачать Torrent? | Как смотреть и слушать онлайн?  


     Отправить личное сообщение
   
Страница 1 из 1
Показать сообщения за:  Поле сортировки  
Начать новую тему Ответить на тему

   Похожие торренты   Автор   Ответы   Просмотры   Последнее сообщение 
В этой теме нет новых непрочитанных сообщений. Скачать торрент Проверен Невероятное путешествие мистера Спивета / The Young and Prodigious T.S. Spivet (2013) HDRip | Чистый звук

в форуме Детское, Семейное кино, Размер: 1.46 ГБ, Здоровье: 100%

Гость

0
857|491

270
1445

28 дек 2014, 00:00

Гость Перейти к последнему сообщению

В этой теме нет новых непрочитанных сообщений. Скачать торрент Проверен Заколдованное королевство 3Д / Enchanted Kingdom 3D (2013) BDRip 1080p от Ash61 | 3D-Video | halfOU | P1

в форуме HD-Video в 3D, Размер: 13.39 ГБ, Здоровье: 100%

Гость

0
1045|123

384
5309

28 дек 2014, 00:45

Гость Перейти к последнему сообщению

В этой теме нет новых непрочитанных сообщений. Скачать торрент Проверен Сарила: Затерянная земля / The Legend of Sarila (2013) BDRip 1080p от Ash61 | 3D-Video | halfOU

в форуме HD-Video в 3D, Размер: 3.65 ГБ, Здоровье: 100%

Anonymous

0
93|16

267
724

21 дек 2014, 00:34

Anonymous Перейти к последнему сообщению

В этой теме нет новых непрочитанных сообщений. Скачать торрент Проверен Камасутра 3D / Kamasutra 3D (2012) BDRip 1080p от Ash61 | 3D-Video | halfOU

в форуме HD-Video в 3D, Размер: 3.58 ГБ, Здоровье: 100%

Гость

0
477|19

455
415

10 дек 2014, 23:58

Гость Перейти к последнему сообщению

В этой теме нет новых непрочитанных сообщений. Скачать торрент Проверен Прогулка / The Walk (2015) BDRip 1080p от Ash61 | 3D-Video | halfOU | Лицензия

в форуме HD-Video в 3D, Размер: 7.53 ГБ, Здоровье: 100%

Гость

0
16|2

317
10

28 янв 2016, 20:20

Гость Перейти к последнему сообщению



Сейчас этот форум просматривают: нет зарегистрированных пользователей и гости: 1


Вы не можете начинать темы
Вы не можете отвечать на сообщения
Вы не можете редактировать свои сообщения
Вы не можете удалять свои сообщения
Вы не можете добавлять вложения


!ВНИМАНИЕ!
 Ресурс не предоставляет электронные версии произведений, а занимается лишь коллекционированием и каталогизацией ссылок, присылаемых и публикуемых на форуме нашими читателями. Если вы являетесь правообладателем какого-либо представленного материала и не желаете чтобы ссылка на него находилась в нашем каталоге, свяжитесь с нами и мы незамедлительно удалим её. Файлы для обмена на трекере предоставлены пользователями сайта, и администрация не несёт ответственности за их содержание. Просьба не заливать файлы, защищенные авторскими правами, а также файлы нелегального содержания!