На всех торрентах на трекере установлена скидка на скачивание в размере 100 процентов(а).
 Возможность скачивания торрента НЕ зависит от ограничений при низком ратио, низком аплоаде, требуемом ратио или требуемом аплоаде.


Начать новую тему Ответить на тему
Статистика раздачи
Размер: 749.5 МБ | Добавлен: 07 янв 2018, 23:01 | Скачали: 0
Сидеров: 13  [0 байт/сек]    Личеров: 0  [0 байт/сек]
Пред. тема | След. тема 

Автор
Сообщение

СообщениеДобавлено: 31 июл 2014, 11:37 

Ответить с цитатой 

#777
Название: Неудержимые 3
Оригинальное название: The Expendables 3
Год выхода: 2014
Жанр: боевик, триллер, приключения
Режиссер: Патрик Хьюз / Patrick Hughes
В ролях: Сильвестр Сталлоне (Barney Ross), Джейсон Стэйтем (Lee Christmas), Мэл Гибсон (Stonebanks), Харрисон Форд (Drummer), Антонио Бандерас (Galgo), Уэсли Снайпс (Doc), Дольф Лундгрен (Gunner Jensen), Терри Крюс (Caesar), Арнольд Шварценеггер (Trench), Рэнди Кутюр (Toll Road), Келси Грэммер (Bonaparte), Джет Ли (Yin Yang)

О фильме: Барни, Кристмас и остальные члены команды сходятся лицом к лицу с Конрадом Стоунбэнксом, многие годы назад основавшем вместе с Барни команду «Неудержимых». Впоследствии Стоунбэнкс становится безжалостным торговцем оружием и тем самым превращается в человека, которого Барни было поручено убить. Или по крайней мере он сам так считал. Теперь Стоунбэнкс, один раз уже сумевший обмануть смерть, поставил себе цель покончить с «Неудержимыми» - но у Барни на этот счет свои планы. Барни решает, что в его борьбе «свежий» подход можно противопоставить старым методам, и пополняет ряды людьми, которые моложе, быстрее и технически более подкованные. Так у членов команды «Неудержимых» начинается новая эра. Последняя миссия превращается в столкновение между представителями классической старой школы и экспертами в высоких технологиях.



Страна: США, Франция, Болгария
Студия: Nu-Image Films, Lionsgate, Millennium Films....
Продолжительность: 02:11:31
Перевод: Дубляж [Blu-ray RUS]
Субтитры: Нет

Семпл


Кодек: XviD
Качество: HDRip
Видео: 656x272 (2.41:1), 23.976 fps, XviD build 73 ~659 kbps avg, 0.15 bit/pixel
Звук: 48 kHz, MPEG Layer 3, 2 ch, ~128.00 kbps avg

Общее
Полное имя : The.Expendables.3.2014.extended.version.HDRip.ot.Portablius.avi
Формат : AVI
Формат/Информация : Audio Video Interleave
Размер файла : 749 Мбайт
Продолжительность : 2 ч. 11 м.
Общий поток : 797 Кбит/сек
Программа кодирования : VirtualDubMod 1.5.10.3 | http://www.virtualdub-fr.org || (build 2550/release)
Библиотека кодирования : VirtualDubMod build 2550/release

Видео
Идентификатор : 0
Формат : MPEG-4 Visual
Профиль формата : Advanced Simple@L5
Параметр BVOP формата : 1
Параметр QPel формата : Нет
Параметр GMC формата : Без точки перехода
Параметр матрицы формата : Выборочная
Идентификатор кодека : XVID
Идентификатор кодека/Подсказка : XviD
Продолжительность : 2 ч. 11 м.
Битрейт : 659 Кбит/сек
Ширина : 656 пикселей
Высота : 272 пикселя
Соотношение сторон : 2,40:1
Частота кадров : 23,976 (23976/1000) кадра/сек
Цветовое пространство : YUV
Субдискретизация насыщенности : 4:2:0
Битовая глубина : 8 бит
Тип развёртки : Прогрессивная
Метод сжатия : С потерями
Бит/(Пиксели*Кадры) : 0.154
Размер потока : 620 Мбайт (83%)
Библиотека кодирования : XviD 73

Аудио
Идентификатор : 1
Формат : MPEG Audio
Версия формата : Version 1
Профиль формата : Layer 3
Идентификатор кодека : 55
Идентификатор кодека/Подсказка : MP3
Продолжительность : 2 ч. 11 м.
Вид битрейта : Постоянный
Битрейт : 128 Кбит/сек
Каналы : 2 канала
Частота : 48,0 КГц
Метод сжатия : С потерями
Размер потока : 120 Мбайт (16%)
Выравнивание : Соединение по промежуткам
Продолжительность промежутка : 42 мс. (1,00 видеокадр)
Время предзагрузки промежутка : 504 мс.
Библиотека кодирования : LAME3.99r
Настройки программы : -m s -V 4 -q 2 -lowpass 17 -b 128



загрузка...
Правила, инструкции, FAQ!!!
Торрент  Добавлен [07 янв 2018, 23:01] Скачать торрент Магнет ссылка
Скачать торрент
[ Размер 15.67 КБ / Просмотров 0 ]

Статус
Проверен 
 
Размер  749.5 МБ
Приватный: Нет (DHT включён)
.torrent скачан  0
Как залить торрент? | Как скачать Torrent? | Ошибка в торренте? Качайте магнет  


     Отправить личное сообщение
   
Страница 1 из 1
Показать сообщения за:  Поле сортировки  
Начать новую тему Ответить на тему

   Похожие торренты   Автор   Ответы   Просмотры   Последнее сообщение 
В этой теме нет новых непрочитанных сообщений. Скачать торрент Проверен Неудержимые 3 / The Expendables 3 (2014) HDRip | Лицензия | Расширенная версия

в форуме Боевики, Размер: 1.46 ГБ, Здоровье: 100%

Гость

0
350|226

124
89

05 дек 2014, 22:15

Гость Перейти к последнему сообщению

В этой теме нет новых непрочитанных сообщений. Скачать торрент Проверен Неудержимые 3 / The Expendables 3 (2014) BDRip 720p | Расширенная версия | Лицензия

в форуме 720p | 1080p, Размер: 6.72 ГБ, Здоровье: 100%

Гость

0
7|0

473
0

29 июл 2014, 23:39

Гость Перейти к последнему сообщению

В этой теме нет новых непрочитанных сообщений. Скачать торрент Проверен Неудержимые 3 / The Expendables 3 (2014) HDRip [576p] iPad [Line]

в форуме Фильмы для iPod, iPhone, iPad, Размер: 2.2 ГБ, Здоровье: 100%

Anonymous

0
51|18

210
63

13 дек 2014, 00:14

Anonymous Перейти к последнему сообщению

В этой теме нет новых непрочитанных сообщений. Скачать торрент Проверен 3 дня на убийство / 3 Days to Kill (2014) HDRip | Расширенная версия | Лицензия

в форуме Боевики, Размер: 1.45 ГБ, Здоровье: 100%

Гость

0
209|12

146
0

17 апр 2014, 21:39

Гость Перейти к последнему сообщению

В этой теме нет новых непрочитанных сообщений. Скачать торрент Кадры / The Internship (2013) HDRip | D | Лицензия | Расширенная версия

в форуме Комедии, Размер: 749.25 МБ, Здоровье: 0%

Anonymous

0
0|0

68
0

11 окт 2013, 21:27

Anonymous Перейти к последнему сообщению



Сейчас этот форум просматривают: нет зарегистрированных пользователей и гости: 0


Вы не можете начинать темы
Вы не можете отвечать на сообщения
Вы не можете редактировать свои сообщения
Вы не можете удалять свои сообщения
Вы не можете добавлять вложения

Перейти:  

!ВНИМАНИЕ!
 Ресурс не предоставляет электронные версии произведений, а занимается лишь коллекционированием и каталогизацией ссылок, присылаемых и публикуемых на форуме нашими читателями. Если вы являетесь правообладателем какого-либо представленного материала и не желаете чтобы ссылка на него находилась в нашем каталоге, свяжитесь с нами и мы незамедлительно удалим её. Файлы для обмена на трекере предоставлены пользователями сайта, и администрация не несёт ответственности за их содержание. Просьба не заливать файлы, защищенные авторскими правами, а также файлы нелегального содержания!