На всех торрентах на трекере установлена скидка на скачивание в размере 100 процентов(а).
 Возможность скачивания торрента НЕ зависит от ограничений при низком ратио, низком аплоаде, требуемом ратио или требуемом аплоаде.


Начать новую тему Ответить на тему
Статистика раздачи
Размер: 4.96 ГБ | Добавлен: 08 фев 2018, 20:22 | Скачали: 2711
Сидеров: 413  [0 байт/сек]    Личеров: 88  [0 байт/сек]
Пред. тема | След. тема 

Автор
Сообщение

СообщениеДобавлено: 08 фев 2018, 20:22 

Ответить с цитатой 

Название: Несчастный случай
Оригинальное название: Accident Man
Год выхода: 2018
Жанр: Боевик, триллер, криминал
Режиссер: Джесси Джонсон
В ролях: Скотт Эдкинс, Рэй Стивенсон, Эшли Грин, Дэвид Пэймер, Майкл Джей Уайт, Рэй Парк, Эми Джонстон, Перри Бенсон, Ник Моран, Росс О'Хеннесси

О фильме:
Майк Фэллон известен тем, что превращает все свои убийства в несчастный случай. Но его отношение к делу полностью меняется, когда умирает его бывшая девушка.



Страна: Великобритания
Студия: Kritzer Levine Wilkins Griffin Entertainment, Six Demon Films
Продолжительность: 01:45:29
Перевод:
Профессиональный (многоголосый, закадровый) | Blu-ray EUR

Файл
Качество: BDRip 720p
Формат: MKV
Кодек: MPEG-4 AVC
Видео: 1280x536 (2,40:1), 23.976 fps, MPEG-4 AVC ~ 4574 Кbps avg, 0.278 bit/pixel
Аудио #1: AC3, 48,0 kHz, 6 ch, ~640.00 kbps avg | русский | Blu-ray EUR
Аудио #2: DTS, 48,0 kHz, 6 ch, ~1509.00 kbps avg | английский | Оригинал

Субтитры: Русские (Полные)

Общее
Уникальный идентификатор : 208175416851876086428997814364902663875 (0x9C9D207C8540BDC3B4AB64CD9CBE26C3)
Полное имя : Accident.Man.2018.720p.Blu.Ray.x264.Rus.Eng.mkv
Формат : Matroska
Версия формата : Version 4 / Version 2
Размер файла : 4,96 Гбайт
Продолжительность : 1 ч. 45 м.
Общий поток : 6726 Кбит/сек
Дата кодирования : UTC 2018-02-07 20:06:14
Программа кодирования : mkvmerge v9.7.1 ('Pandemonium') 64bit
Библиотека кодирования : libebml v1.3.4 + libmatroska v1.4.5

Видео
Идентификатор : 1
Формат : AVC
Формат/Информация : Advanced Video Codec
Профиль формата : High@L4.1
Настройки формата : CABAC / 9 Ref Frames
Параметр CABAC формата : Да
Параметр ReFrames формата : 9 кадров
Идентификатор кодека : V_MPEG4/ISO/AVC
Продолжительность : 1 ч. 45 м.
Битрейт : 4574 Кбит/сек
Ширина : 1280 пикселей
Высота : 536 пикселей
Соотношение сторон : 2,40:1
Режим частоты кадров : Постоянный
Частота кадров : 23,976 (24000/1001) кадра/сек
Цветовое пространство : YUV
Субдискретизация насыщенности : 4:2:0
Битовая глубина : 8 бит
Тип развёртки : Прогрессивная
Бит/(Пиксели*Кадры) : 0.278
Размер потока : 3,37 Гбайт (68%)
Заголовок : Accident.Man.2018.720p.Blu.Ray.x264.Rus.Eng
Библиотека кодирования : x264 core 149 r2771+45 509cceb 7mod [8-bit@all X86_64]
Настройки программы : cabac=1 / ref=9 / deblock=1:-3:-3 / analyse=0x3:0x113 / me=umh / subme=10 / psy=1 / fade_compensate=0.00 / psy_rd=0.90:0.10 / mixed_ref=1 / me_range=32 / chroma_me=1 / trellis=2 / 8x8dct=1 / cqm=0 / deadzone=21,11 / fast_pskip=0 / chroma_qp_offset=-2 / threads=12 / lookahead_threads=2 / sliced_threads=0 / nr=0 / decimate=1 / interlaced=0 / bluray_compat=0 / constrained_intra=0 / fgo=0 / bframes=8 / b_pyramid=2 / b_adapt=2 / b_bias=0 / direct=3 / weightb=1 / open_gop=0 / weightp=2 / keyint=250 / keyint_min=23 / scenecut=40 / intra_refresh=0 / rc_lookahead=40 / rc=crf / mbtree=0 / crf=20.0000 / qcomp=0.70 / qpmin=0:0:0 / qpmax=69:69:69 / qpstep=4 / vbv_maxrate=30000 / vbv_bufsize=30000 / crf_max=0.0 / nal_hrd=none / filler=0 / ip_ratio=1.40 / pb_ratio=1.30 / aq=3:1.00 / aq-sensitivity=10.00 / aq-factor=1.00:1.00:1.00 / aq2=0 / aq3=2:[0.50:0.50]:[0.50:0.50]:[0.50:0.50]:[0.50:0.50] / aq3-sensitivity=10.00 / aq3-factor=[1.00:1.00]:[1.00:1.00]:[1.00:1.00] / aq3-boundary=192:64:24
Язык : English
Default : Да
Forced : Нет
Цветовой диапазон : Limited
Коэффициенты матрицы : BT.709

Аудио #1
Идентификатор : 2
Формат : AC-3
Формат/Информация : Audio Coding 3
Идентификатор кодека : A_AC3
Продолжительность : 1 ч. 45 м.
Вид битрейта : Постоянный
Битрейт : 640 Кбит/сек
Каналы : 6 каналов
Расположение каналов : Front: L C R, Side: L R, LFE
Частота : 48,0 КГц
Частота кадров : 31,250 кадров/сек (1536 SPF)
Битовая глубина : 16 бит
Метод сжатия : С потерями
Размер потока : 483 Мбайт (10%)
Заголовок : Blu-ray EUR
Язык : Russian
Default : Да
Forced : Нет

Аудио #2
Идентификатор : 3
Формат : DTS
Формат/Информация : Digital Theater Systems
Идентификатор кодека : A_DTS
Продолжительность : 1 ч. 45 м.
Вид битрейта : Постоянный
Битрейт : 1509 Кбит/сек
Каналы : 6 каналов
Расположение каналов : Front: L C R, Side: L R, LFE
Частота : 48,0 КГц
Частота кадров : 93,750 кадра/сек (512 SPF)
Битовая глубина : 24 бит
Метод сжатия : С потерями
Размер потока : 1,11 Гбайт (22%)
Язык : English
Default : Нет
Forced : Нет

Текст
Идентификатор : 4
Формат : UTF-8
Идентификатор кодека : S_TEXT/UTF8
Идентификатор кодека/Информация : UTF-8 Plain Text
Продолжительность : 1 ч. 40 м.
Битрейт : 83 бит/сек
ElementCount : 1382
Размер потока : 61,4 Кбайт (0%)
Заголовок : Полные
Язык : Russian
Default : Да
Forced : Нет

Меню
00:00:00.000 : en:
00:06:02.153 : en:
00:15:28.844 : en:
00:17:56.366 : en:
00:21:30.455 : en:
00:28:05.558 : en:
00:33:13.157 : en:
00:42:36.554 : en:
00:46:16.273 : en:
00:53:10.729 : en:
00:58:43.144 : en:
01:05:58.871 : en:
01:11:50.306 : en:
01:15:08.378 : en:
01:26:46.201 : en:
01:33:46.203 : en:


Правила, инструкции, FAQ!!!
Торрент  Добавлен [08 фев 2018, 20:22] Скачать торрент Магнет ссылка
Скачать торрент
[ Размер 13.34 КБ / Просмотров 123 ]

Статус
Проверен 
 
Размер  4.96 ГБ
Приватный: Нет (DHT включён)
.torrent скачан  2711
Как залить торрент? | Как скачать Torrent? | Ошибка в торренте? Качайте магнет  
загрузка...


     Отправить личное сообщение
   
Страница 1 из 1
Показать сообщения за:  Поле сортировки  
Начать новую тему Ответить на тему

   Похожие торренты   Автор   Ответы   Просмотры   Последнее сообщение 
В этой теме нет новых непрочитанных сообщений. Скачать торрент Проверен Несчастный случай / Accident Man (2018) BDRip-AVC | Лицензия

в форуме Боевики, Размер: 1.46 ГБ, Здоровье: 100%

Гость

0
755|168

567
619

08 фев 2018, 20:18

Гость Перейти к последнему сообщению

В этой теме нет новых непрочитанных сообщений. Скачать торрент Проверен [iPad] Несчастный случай / Accident Man (Джесси Джонсон / Jesse V. Johnson ) [2018, Великобритания, Боевик, триллер, криминал, BDRip, SD (576p)] DUB + Original + sub (rus, eng)

в форуме Фильмы для iPod, iPhone, iPad, Размер: 1.81 ГБ, Здоровье: 100%

Anonymous

0
42|6

188
10

08 мар 2018, 09:23

Anonymous Перейти к последнему сообщению

В этой теме нет новых непрочитанных сообщений. Скачать торрент Проверен Первому игроку приготовиться / Ready Player One (2018) BDRip 720p | Лицензия

в форуме 720p | 1080p, Размер: 5.7 ГБ, Здоровье: 100%

Гость

0
622|400

21
400

06 июл 2018, 18:44

Гость Перейти к последнему сообщению

В этой теме нет новых непрочитанных сообщений. Скачать торрент Проверен А вот и она / And So It Goes (2014) BDRip 720p | D | Лицензия

в форуме 720p | 1080p, Размер: 3.16 ГБ, Здоровье: 100%

Гость

0
1|0

303
0

31 авг 2014, 23:56

Гость Перейти к последнему сообщению

В этой теме нет новых непрочитанных сообщений. Скачать торрент Ку! Кин-дза-дза (2013) BDRip 720p | Лицензия

в форуме Отечественные мультфильмы (HD Video), Размер: 1.55 ГБ, Здоровье: 100%

Anonymous

0
61|5

306
405

21 апр 2014, 16:23

Anonymous Перейти к последнему сообщению



Сейчас этот форум просматривают: нет зарегистрированных пользователей и гости: 0


Вы не можете начинать темы
Вы не можете отвечать на сообщения
Вы не можете редактировать свои сообщения
Вы не можете удалять свои сообщения
Вы не можете добавлять вложения

Перейти:  
Ресурс не предоставляет электронные версии произведений, а занимается лишь коллекционированием и каталогизацией ссылок, присылаемых и публикуемых на форуме нашими читателями. Если вы являетесь правообладателем какого-либо представленного материала и не желаете чтобы ссылка на него находилась в нашем каталоге, свяжитесь с нами и мы незамедлительно удалим её. Файлы для обмена на трекере предоставлены пользователями сайта, и администрация не несёт ответственности за их содержание. Просьба не заливать файлы, защищенные авторскими правами, а также файлы нелегального содержания!
cron