На всех торрентах на трекере установлена скидка на скачивание в размере 100 процентов(а).
 Возможность скачивания торрента НЕ зависит от ограничений при низком ратио, низком аплоаде, требуемом ратио или требуемом аплоаде.


Начать новую тему Ответить на тему
Статистика раздачи
Размер: 2.73 ГБ | Добавлен: 05 янв 2017, 00:58 | Скачали: 71
Сидеров: 90  [0 байт/сек]    Личеров: 4  [0 байт/сек]
Пред. тема | След. тема 

Автор
Сообщение

СообщениеДобавлено: 05 янв 2017, 00:58 

Ответить с цитатой 

Название: Неоспоримый 3
Оригинальное название: Undisputed III: Redemption
Год выхода: 2010
Жанр: Боевик, драма, криминал, спорт
Режиссер: Айзек Флорентайн
В ролях: Скотт Эдкинс, Майкл Шеннон Дженкинс, Марк Иванир, Христо Шопов, Марко Зарор, Илрам Чои, Роберт Костанцо, Латиф Кроудер, Эстебан Куето

О фильме:
Юрий Бойка — российский чемпион подпольных боев без правил, постепенно оправляющийся от полученной в последнем поединке травмы, решает вернуться на ринг. Победив в бою нынешнего чемпиона тюрьмы «Чёрные Холмы» его босс — Гага, решает отправить его на международный чемпионат тюремных поединков. Поврежденное колено дает о себе знать в каждом бою и беспокоит Бойку, но он готов пройти до конца, чтобы сразиться с колумбийским бойцом и доказать, что он неоспоримый.



Страна: США
Студия: Nu Image Films
Продолжительность: 01:36:02
Перевод: Профессиональный (многоголосый, закадровый) (R5)


Кодек: H.264
Качество: BDRip 720р от SuperMin
Видео: 1280x720 (16:9), 2794 kbps, 23.976 fps
Звук:
Русский (AC-3, 6ch, 640 kbps)
Оригинал (AC-3, 6ch, 640 kbps)

x264 [info]: frame I:1226 Avg QP:16.87 size: 86297
x264 [info]: frame P:37074 Avg QP:18.38 size: 28334
x264 [info]: frame B:99845 Avg QP:22.02 size: 8572
x264 [info]: consecutive B-frames: 5.3% 5.5% 14.0% 21.9% 22.7% 26.3% 2.8% 1.1% 0.4%
encoded 138145 frames, 6.71 fps, 2793.75 kb/s
General
Unique ID : 217803977178796611291616383282147439169 (0xA3DB8529916AA434AB2FFFF41C6F3241)
Complete name : F:ФИЛЬМЫНЕОСПОРИМЫЙНеоспоримый 3.2010.BDRip.720p.MVO.mkv
Format : Matroska
Format version : Version 4 / Version 2
File size : 2.73 GiB
Duration : 1h 36mn
Overall bit rate : 4 075 Kbps
Movie name : Неоспоримый -3 (2010) - #LORDKILL#
Encoded date : UTC 2016-06-12 16:54:30
Writing application : mkvmerge v8.0.0 ('Til The Day That I Die') 64bit
Writing library : libebml v1.3.1 + libmatroska v1.4.2

Video
ID : 1
Format : AVC
Format/Info : Advanced Video Codec
Format profile : High@L4.1
Format settings, CABAC : Yes
Format settings, ReFrames : 9 frames
Codec ID : V_MPEG4/ISO/AVC
Duration : 1h 36mn
Bit rate : 2 794 Kbps
Width : 1 280 pixels
Height : 720 pixels
Display aspect ratio : 16:9
Frame rate mode : Constant
Frame rate : 23.976 (24000/1001) fps
Color space : YUV
Chroma subsampling : 4:2:0
Bit depth : 8 bits
Scan type : Progressive
Bits/(Pixel*Frame) : 0.126
Stream size : 1.87 GiB (69%)
Writing library : x264 core 146 r2538 121396c
Encoding settings : cabac=1 / ref=9 / deblock=1:-1:-1 / analyse=0x3:0x113 / me=umh / subme=10 / psy=1 / psy_rd=1.00:0.00 / mixed_ref=1 / me_range=32 / chroma_me=1 / trellis=2 / 8x8dct=1 / cqm=0 / deadzone=21,11 / fast_pskip=0 / chroma_qp_offset=-2 / threads=12 / lookahead_threads=2 / sliced_threads=0 / nr=0 / decimate=1 / interlaced=0 / bluray_compat=0 / constrained_intra=0 / bframes=8 / b_pyramid=2 / b_adapt=2 / b_bias=0 / direct=1 / weightb=1 / open_gop=0 / weightp=2 / keyint=240 / keyint_min=23 / scenecut=40 / intra_refresh=0 / rc_lookahead=40 / rc=crf / mbtree=0 / crf=19.0 / qcomp=0.60 / qpmin=0 / qpmax=69 / qpstep=4 / vbv_maxrate=14000 / vbv_bufsize=14000 / crf_max=0.0 / nal_hrd=none / filler=0 / ip_ratio=1.40 / pb_ratio=1.30 / aq=1:1.00
Default : Yes
Forced : No

Audio #1
ID : 2
Format : AC-3
Format/Info : Audio Coding 3
Mode extension : CM (complete main)
Format settings, Endianness : Big
Codec ID : A_AC3
Duration : 1h 36mn
Bit rate mode : Constant
Bit rate : 640 Kbps
Channel(s) : 6 channels
Channel positions : Front: L C R, Side: L R, LFE
Sampling rate : 48.0 KHz
Frame rate : 31.250 fps (1536 spf)
Compression mode : Lossy
Stream size : 440 MiB (16%)
Language : Russian
Default : Yes
Forced : No

Audio #2
ID : 3
Format : AC-3
Format/Info : Audio Coding 3
Mode extension : CM (complete main)
Format settings, Endianness : Big
Codec ID : A_AC3
Duration : 1h 36mn
Bit rate mode : Constant
Bit rate : 640 Kbps
Channel(s) : 6 channels
Channel positions : Front: L C R, Side: L R, LFE
Sampling rate : 48.0 KHz
Frame rate : 31.250 fps (1536 spf)
Compression mode : Lossy
Stream size : 440 MiB (16%)
Language : English
Default : No
Forced : No
загрузка...
Правила, инструкции, FAQ!!!
Торрент  Добавлен [05 янв 2017, 00:58] Скачать торрент Магнет ссылка
Скачать торрент
[ Размер 14.56 КБ / Просмотров 7 ]

Статус
Проверен 
 
Размер  2.73 ГБ
Приватный: Нет (DHT включён)
.torrent скачан  71
Как залить торрент? | Как скачать Torrent? | Как смотреть и слушать онлайн?  


     Отправить личное сообщение
   
Страница 1 из 1
Показать сообщения за:  Поле сортировки  
Начать новую тему Ответить на тему

   Похожие торренты   Автор   Ответы   Просмотры   Последнее сообщение 
В этой теме нет новых непрочитанных сообщений. Скачать торрент Проверен Неоспоримый 2 / Undisputed II: Last Man Standing (2006) BDRip 1080p

в форуме 720p | 1080p, Размер: 5.76 ГБ, Здоровье: 100%

Гость

0
82|9

170
67

20 янв 2016, 17:32

Гость Перейти к последнему сообщению

В этой теме нет новых непрочитанных сообщений. Скачать торрент Проверен Неоспоримый 4 / Boyka: Undisputed IV (2016) WEBRip | L

в форуме Боевики, Размер: 1.37 ГБ, Здоровье: 38%

Гость

0
60|155

84
48

09 апр 2017, 00:35

Гость Перейти к последнему сообщению

В этой теме нет новых непрочитанных сообщений. Скачать торрент Проверен Обсуждению не подлежит / Undisputed (2002) BDRip 1080p

в форуме 720p | 1080p, Размер: 5.76 ГБ, Здоровье: 100%

Гость

0
35|11

50
121

05 янв 2017, 00:53

Гость Перейти к последнему сообщению

В этой теме нет новых непрочитанных сообщений. Скачать торрент Проверен [PSP] UFC Undisputed 2010 [ISO] [NTSC|ENG]

в форуме PSP, Размер: 1.64 ГБ, Здоровье: 100%

Anonymous

0
28|9

34
1

05 мар 2017, 11:46

Anonymous Перейти к последнему сообщению

В этой теме нет новых непрочитанных сообщений. Скачать торрент Проверен [XBOX360] UFC Undisputed 2010 [ENG][Demo]

в форуме XBOX 360, Размер: 969.59 МБ, Здоровье: 0%

Anonymous

0
0|0

8
0

05 мар 2017, 12:38

Anonymous Перейти к последнему сообщению



Сейчас этот форум просматривают: нет зарегистрированных пользователей и гости: 1


Вы не можете начинать темы
Вы не можете отвечать на сообщения
Вы не можете редактировать свои сообщения
Вы не можете удалять свои сообщения
Вы не можете добавлять вложения

Перейти:  

!ВНИМАНИЕ!
 Ресурс не предоставляет электронные версии произведений, а занимается лишь коллекционированием и каталогизацией ссылок, присылаемых и публикуемых на форуме нашими читателями. Если вы являетесь правообладателем какого-либо представленного материала и не желаете чтобы ссылка на него находилась в нашем каталоге, свяжитесь с нами и мы незамедлительно удалим её. Файлы для обмена на трекере предоставлены пользователями сайта, и администрация не несёт ответственности за их содержание. Просьба не заливать файлы, защищенные авторскими правами, а также файлы нелегального содержания!