На всех торрентах на трекере установлена скидка на скачивание в размере 100 процентов(а).
 Возможность скачивания торрента НЕ зависит от ограничений при низком ратио, низком аплоаде, требуемом ратио или требуемом аплоаде.


Начать новую тему Ответить на тему
Статистика раздачи
Размер: 5.76 ГБ | Добавлен: 20 янв 2016, 17:32 | Скачали: 67
Сидеров: 82  [0 байт/сек]    Личеров: 9  [0 байт/сек]
Пред. тема | След. тема 

Автор
Сообщение

СообщениеДобавлено: 20 янв 2016, 17:32 

Ответить с цитатой 

Название: Неоспоримый 2
Оригинальное название: Undisputed II: Last Man Standing
Год выхода: 2006
Жанр: Боевик, драма, криминал, спорт
Режиссер: Айзек Флорентайн
В ролях: Майкл Джей Уайт, Скотт Эдкинс, Бен Кросс, Эли Данкер, Марк Иванир, Кен Лернер, Дэйзи Лэнг, Сильвио Шимач

О фильме: Бывший чемпион мира по боксу во время визита в Россию случайно попадает в криминальную разборку, связанную с высшими правительственными чинами и против него фабрикуется ложное дело. Дорога домой будет долгой и трудной, проходящей через суровую российскую тюрьму…



Страна: США
Выпущено: Millennium Films, Nu Image
Продолжительность: 01:37:36
Перевод: Профессиональный (Многоголосый закадровый "R5")


Кодек: x264
Формат: MKV
Качество: BDRip 1080p
Видео: AVC (High@L4.1) 1920x1040 (1.85:1), 23.976 fps, 7562 kbps, 0,158 Bits/(Pixel*Frame)
Аудио 1: DD (AC-3) 5.1 ch, 448 kbps (Rus)
Аудио 2: DD (AC-3) 5.1 ch, 448 kbps (Eng)
Размер: (1/4 BD-R)

General
Unique ID : 211011503690557784699476281684396174541 (0x9EBF565D039B0C588D23224158816CCD)
Format : Matroska
Format version : Version 2
File size : 5.76 GiB
Duration : 1h 37mn
Overall bit rate : 8 454 Kbps
Movie name : Неоспоримый 2 (2006) BDRip (1080p)
Encoded date : UTC 2012-10-01 12:47:21
Writing application : mkvmerge v5.2.1 ('A Far Off Place') built on Jan 31 2012 17:07:03
Writing library : libebml v1.2.3 + libmatroska v1.3.0

Video
ID : 1
Format : AVC
Format/Info : Advanced Video Codec
Format profile : High@L4.1
Format settings, CABAC : Yes
Format settings, ReFrames : 4 frames
Codec ID : V_MPEG4/ISO/AVC
Duration : 1h 37mn
Bit rate : 7 562 Kbps
Width : 1 920 pixels
Height : 1 040 pixels
Display aspect ratio : 1.85:1
Frame rate mode : Variable
Frame rate : 23.976 fps
Color space : YUV
Chroma subsampling : 4:2:0
Bit depth : 8 bits
Scan type : Progressive
Bits/(Pixel*Frame) : 0.158
Stream size : 5.04 GiB (87%)
Title : Release by Alex260680
Writing library : x264 core 124 r2197M 69a0443
Encoding settings : cabac=1 / ref=4 / deblock=1:-3:-3 / analyse=0x3:0x133 / me=umh / subme=10 / psy=1 / psy_rd=0.90:0.15 / mixed_ref=1 / me_range=32 / chroma_me=1 / trellis=2 / 8x8dct=1 / cqm=0 / deadzone=21,11 / fast_pskip=0 / chroma_qp_offset=-3 / threads=8 / sliced_threads=0 / nr=0 / decimate=0 / interlaced=0 / bluray_compat=0 / constrained_intra=0 / bframes=5 / b_pyramid=2 / b_adapt=2 / b_bias=0 / direct=3 / weightb=1 / open_gop=0 / weightp=2 / keyint=240 / keyint_min=23 / scenecut=40 / intra_refresh=0 / rc_lookahead=60 / rc=2pass / mbtree=1 / bitrate=7562 / ratetol=1.0 / qcomp=0.60 / qpmin=0 / qpmax=69 / qpstep=4 / cplxblur=20.0 / qblur=0.5 / ip_ratio=1.40 / aq=1:1.00
Language : English
Default : Yes
Forced : No

Audio #1
ID : 2
Format : AC-3
Format/Info : Audio Coding 3
Mode extension : CM (complete main)
Format settings, Endianness : Big
Codec ID : A_AC3
Duration : 1h 37mn
Bit rate mode : Constant
Bit rate : 448 Kbps
Channel(s) : 6 channels
Channel positions : Front: L C R, Side: L R, LFE
Sampling rate : 48.0 KHz
Bit depth : 16 bits
Compression mode : Lossy
Stream size : 313 MiB (5%)
Title : Профессиональный многоголосый (R5)
Language : Russian
Default : Yes
Forced : No

Audio #2
ID : 3
Format : AC-3
Format/Info : Audio Coding 3
Mode extension : CM (complete main)
Format settings, Endianness : Big
Codec ID : A_AC3
Duration : 1h 37mn
Bit rate mode : Constant
Bit rate : 448 Kbps
Channel(s) : 6 channels
Channel positions : Front: L C R, Side: L R, LFE
Sampling rate : 48.0 KHz
Bit depth : 16 bits
Compression mode : Lossy
Stream size : 313 MiB (5%)
Title : Original (English)
Language : English
Default : No
Forced : No

Menu
00:00:00.000 : en:Chapter1
00:12:48.893 : en:Chapter2
00:20:02.118 : en:Chapter3
00:26:09.067 : en:Chapter4
00:30:53.351 : en:Chapter5
00:39:56.936 : en:Chapter6
00:48:14.058 : en:Chapter7
00:52:31.648 : en:Chapter8
00:58:56.533 : en:Chapter9
01:03:05.907 : en:Chapter10
01:11:07.305 : en:Chapter11
01:15:51.464 : en:Chapter12
01:19:19.755 : en:Chapter13
01:21:45.567 : en:Chapter14
01:28:16.625 : en:Chapter15
01:34:01.219 : en:Chapter16



Релиз от: Alex260680
загрузка...
Правила, инструкции, FAQ!!!
Торрент  Добавлен [20 янв 2016, 17:32] Скачать торрент Магнет ссылка
Скачать торрент
[ Размер 15.23 КБ / Просмотров 17 ]

Статус
Проверен 
 
Размер  5.76 ГБ
Приватный: Нет (DHT включён)
.torrent скачан  67
Как залить торрент? | Как скачать Torrent? | Ошибка в торренте? Качайте магнет  


     Отправить личное сообщение
   
Страница 1 из 1
Показать сообщения за:  Поле сортировки  
Начать новую тему Ответить на тему

   Похожие торренты   Автор   Ответы   Просмотры   Последнее сообщение 
В этой теме нет новых непрочитанных сообщений. Скачать торрент Неоспоримый 2 / Обсуждению не подлежит 2 / Undisputed II: Last Man Standing (Айзек Флорентайн / Isaac Florentine) [2006, боевик, драма, криминал, спорт, BDRip]

в форуме Боевики, Размер: 744.06 МБ, Здоровье: 100%

Anonymous

0
21|5

71
1

19 апр 2014, 18:50

Anonymous Перейти к последнему сообщению

В этой теме нет новых непрочитанных сообщений. Скачать торрент Проверен Неоспоримый 3 / Undisputed III: Redemption (2010) BDRip 720р | P

в форуме 720p | 1080p, Размер: 2.73 ГБ, Здоровье: 100%

Гость

0
91|4

100
71

05 янв 2017, 00:58

Гость Перейти к последнему сообщению

В этой теме нет новых непрочитанных сообщений. Скачать торрент Проверен Неоспоримый 4 / Boyka: Undisputed IV (Тодор Чапканов / Todor Chapkanov) [2016, США, Болгария, боевик, BDRip-AVC] MVO

в форуме Фильмы 2016-2017, Размер: 1.45 ГБ, Здоровье: 0%

Anonymous

0
0|0

0
0

03 фев 2018, 19:14

Anonymous Перейти к последнему сообщению

В этой теме нет новых непрочитанных сообщений. Скачать торрент Проверен Неоспоримый 4 / Boyka: Undisputed IV (Тодор Чапканов / Todor Chapkanov) [2016, США, Болгария, боевик, BDRip] MVO (iTunes)

в форуме Фильмы 2016-2017, Размер: 1.46 ГБ, Здоровье: 0%

Anonymous

0
0|0

0
0

03 фев 2018, 19:11

Anonymous Перейти к последнему сообщению

В этой теме нет новых непрочитанных сообщений. Скачать торрент Неоспоримый 3 / Undisputed III: Redemption (Айзек Флорентайн / Isaac Florentine) [2010, боевик, драма, криминал, BDRip-AVC]

в форуме Боевики, Размер: 2.18 ГБ, Здоровье: 100%

Anonymous

0
31|10

63
0

03 апр 2014, 12:42

Anonymous Перейти к последнему сообщению



Сейчас этот форум просматривают: нет зарегистрированных пользователей и гости: 1


Вы не можете начинать темы
Вы не можете отвечать на сообщения
Вы не можете редактировать свои сообщения
Вы не можете удалять свои сообщения
Вы не можете добавлять вложения

Перейти:  
Ресурс не предоставляет электронные версии произведений, а занимается лишь коллекционированием и каталогизацией ссылок, присылаемых и публикуемых на форуме нашими читателями. Если вы являетесь правообладателем какого-либо представленного материала и не желаете чтобы ссылка на него находилась в нашем каталоге, свяжитесь с нами и мы незамедлительно удалим её. Файлы для обмена на трекере предоставлены пользователями сайта, и администрация не несёт ответственности за их содержание. Просьба не заливать файлы, защищенные авторскими правами, а также файлы нелегального содержания!
cron