На всех торрентах на трекере установлена скидка на скачивание в размере 100 процентов(а).
 Возможность скачивания торрента НЕ зависит от ограничений при низком ратио, низком аплоаде, требуемом ратио или требуемом аплоаде.


Начать новую тему Ответить на тему
Статистика раздачи
Размер: 3.14 ГБ | Добавлен: 21 окт 2014, 20:57 | Скачали: 3
Сидеров: 22  [0 байт/сек]    Личеров: 5  [0 байт/сек]
Пред. тема | След. тема 

Автор
Сообщение

СообщениеДобавлено: 21 окт 2014, 20:57 

Ответить с цитатой 

Необыкновенные приключения Карика и Вали

Жанр: приключения, фантастика
Год выпуска: 1987
Продолжительность: 01:03:16 + 01:03:35

Режиссёры: Валерий Родченко

В ролях: Алексей Черцов, Анна Дикуль, Василий Ливанов, Ольга Волкова, Михаил Светин, Леонид Ярмольник, Гелена Ивлиева, Аркадий Коваль, Елена Попова, Виктор Михайлов, Анатолий Телков, Владимир Воробьев

Описание: Брат и сестра Карик и Валя попадают в квартиру профессора Енотова. Выпив изобретенный ими эликсир, они уменьшаются настолько, что стрекоза уносит их на пруд. И теперь весь привычный мир, в котором они до сих пор жили, приобрел невероятные очертания и особенности ...

Доп. информация: по одноименной повести Яна Ларри



Трансляция спутникового канала:


Семпл: https://yadi.sk/i/vhPYfozWcA65w

Качество видео: DVB
Формат видео: MPEG-PS

Видео: MPEG2 Video, 720x576 (4:3), 25 fps, 3300 kbps
Аудио: MPEG Audiо, 2 сh, 48 kHz, 192 kbps
General
Complete name : D:\Необыкновенные приключения Карика и Вали. (1987)\01с. Необыкновенные приключения Карика и Вали. (1987)_DVB by SLuMeP.mpg
Format : MPEG-PS
File size : 1.54 GiB
Duration : 1h 3mn
Overall bit rate mode : Variable
Overall bit rate : 3 479 Kbps

Video
ID : 224 (0xE0)
Format : MPEG Video
Format version : Version 2
Format profile : Main@Main
Format settings, BVOP : No
Format settings, Matrix : Custom
Format settings, GOP : M=3, N=12
Duration : 1h 3mn
Bit rate mode : Variable
Bit rate : 3 218 Kbps
Maximum bit rate : 5 000 Kbps
Width : 720 pixels
Height : 576 pixels
Display aspect ratio : 4:3
Frame rate : 25.000 fps
Standard : PAL
Color space : YUV
Chroma subsampling : 4:2:0
Bit depth : 8 bits
Scan type : Interlaced
Scan order : Top Field First
Compression mode : Lossy
Bits/(Pixel*Frame) : 0.310
Time code of first frame : 00:00:00:00
Time code source : Group of pictures header
Stream size : 1.42 GiB (92%)

Audio
ID : 192 (0xC0)
Format : MPEG Audio
Format version : Version 1
Format profile : Layer 2
Duration : 1h 3mn
Bit rate mode : Constant
Bit rate : 192 Kbps
Channel(s) : 2 channels
Sampling rate : 48.0 KHz
Compression mode : Lossy
Stream size : 86.9 MiB (6%)

загрузка...
Правила, инструкции, FAQ!!!
Торрент  Добавлен [21 окт 2014, 20:57] Скачать торрент Магнет ссылка
Скачать торрент
[ Размер 16.53 КБ / Просмотров 37 ]

Статус
Проверен 
 
Размер  3.14 ГБ
Приватный: Нет (DHT включён)
.torrent скачан  3
Как залить торрент? | Как скачать Torrent? | Ошибка в торренте? Качайте магнет  


     Отправить личное сообщение
   
Страница 1 из 1
Показать сообщения за:  Поле сортировки  
Начать новую тему Ответить на тему

   Похожие торренты   Автор   Ответы   Просмотры   Последнее сообщение 
В этой теме нет новых непрочитанных сообщений. Скачать торрент Проверен Левицкий Андрей, Жаков Лев - Змееныш. S.T.A.L.K.E.R [Кухарешин Валерий, 2010, фантастика, приключения, 92 kbps]

в форуме Аудиокниги (AAC, ALAC), Размер: 265.92 МБ, Здоровье: 100%

Anonymous

0
3|0

31
1

28 авг 2016, 19:40

Anonymous Перейти к последнему сообщению

В этой теме нет новых непрочитанных сообщений. Скачать торрент Проверен Приключения Электроника (Константин Бромберг) [1979, детский, приключения, фантастика, DVDRip]

в форуме Детское, Семейное кино, Размер: 2.91 ГБ, Здоровье: 100%

Anonymous

0
69|22

185
1

11 апр 2016, 23:40

Anonymous Перейти к последнему сообщению

В этой теме нет новых непрочитанных сообщений. Скачать торрент Проверен Приключения Электроника (Константин Бромберг) [1979, детский, приключения, фантастика, DVDRip]

в форуме Детское, Семейное кино, Размер: 1.46 ГБ, Здоровье: 100%

Anonymous

0
68|22

105
0

10 апр 2016, 20:23

Anonymous Перейти к последнему сообщению

В этой теме нет новых непрочитанных сообщений. Скачать торрент Проверен Polaris: Путешествия, приключения, фантастика. Вып. LХ. Приключения в микромире. Том IV - Марк Твен - Три тысячи лет среди микробов [2014, PDF/DjVu, RUS]

в форуме Фантастика, фэнтези, Размер: 2.29 МБ, Здоровье: 100%

Anonymous

0
22|4

36
3

12 июн 2017, 21:45

Anonymous Перейти к последнему сообщению

В этой теме нет новых непрочитанных сообщений. Скачать торрент Проверен Рувим Фраерман | Жизнь и необыкновенные приключения капитан-лейтенанта Головнина, путешественника и мореходца [1951] [RTF, FB2]

в форуме Приключения, Размер: 53.08 МБ, Здоровье: 100%

Anonymous

0
23|22

77
1

07 дек 2014, 01:26

Anonymous Перейти к последнему сообщению



Сейчас этот форум просматривают: нет зарегистрированных пользователей и гости: 0


Вы не можете начинать темы
Вы не можете отвечать на сообщения
Вы не можете редактировать свои сообщения
Вы не можете удалять свои сообщения
Вы не можете добавлять вложения

Перейти:  
Ресурс не предоставляет электронные версии произведений, а занимается лишь коллекционированием и каталогизацией ссылок, присылаемых и публикуемых на форуме нашими читателями. Если вы являетесь правообладателем какого-либо представленного материала и не желаете чтобы ссылка на него находилась в нашем каталоге, свяжитесь с нами и мы незамедлительно удалим её. Файлы для обмена на трекере предоставлены пользователями сайта, и администрация не несёт ответственности за их содержание. Просьба не заливать файлы, защищенные авторскими правами, а также файлы нелегального содержания!
cron