На всех торрентах на трекере установлена скидка на скачивание в размере 100 процентов(а).
 Возможность скачивания торрента НЕ зависит от ограничений при низком ратио, низком аплоаде, требуемом ратио или требуемом аплоаде.


Начать новую тему Ответить на тему
Статистика раздачи
Размер: 758.28 МБ | Добавлен: 02 авг 2014, 16:54 | Скачали: 0
Сидеров: 4  [0 байт/сек]    Личеров: 0  [0 байт/сек]
Пред. тема | След. тема 

Автор
Сообщение

СообщениеДобавлено: 02 авг 2014, 16:54 

Ответить с цитатой 

Need for Speed: Жажда скорости / Need for Speed



Год выпуска: 2014
Страна: Великобритания, Ирландия, Филиппины, США
Жанр: боевик, триллер, драма, криминал
Продолжительность: 02:10:51
Перевод: Профессиональный (дублированный) Blu-ray 3D EUR
Cубтитры: нет
Режиссер: Скотт Во / Scott Waugh
В ролях: Аарон Пол, Доминик Купер, Имоджен Путс, Дакота Джонсон, Майкл Китон, Рамон Родригес, Ник Чинланд, Скотт Мескади, Рами Малек, Харрисон Джилбертсон
Описание:
История Тоби Маршалла, гениального автомеханика, чьей единственной отдушиной является участие в подпольных гонках. Чтобы сохранить семейную мастерскую, Тоби вынужден взять в партнеры богатого и заносчивого бывшего гонщика NASCAR Дино Брюстера. Когда дела Тоби наконец-то начинают идти в гору, Дино подставляет партнера, и Тоби обвиняют в преступлении, которого он не совершал. Спустя два года Тоби выходит из тюрьмы с мыслью о мести. Чтобы достичь своей цели, ему придется совершить невозможное и доказать, что даже в мире броских суперкаров самый невзрачный гонщик может финишировать первым...



Качество: HDRip (рип с BDRip 720p)
Формат: MP4
Видео кодек: H.264
Аудио кодек: AAC
Видео: AVC at 679 Kbps, 640 x 272 (2.388) at 23.976 fps
Аудио: AAC at 128 Kbps, 2 channels, 48.0 KHz
Код:
General
Complete name                            : G:\Need for Speed Жажда скорости (2014) 640х [rutracker].mp4
Format                                   : MPEG-4
Format profile                           : Base Media
Codec ID                                 : isom
File size                                : 758 MiB
Duration                                 : 2h 10mn
Overall bit rate                         : 810 Kbps
Movie name                               : Need for Speed (2014) [by Alien.09]
Encoded date                             : UTC 2014-07-17 16:57:49
Tagged date                              : UTC 2014-07-17 16:57:49
Writing application                      : XviD4PSP 6.0 / 54.29.105

Video
ID                                       : 1
Format                                   : AVC
Format/Info                              : Advanced Video Codec
Format profile                           : Main@L4.1
Format settings, CABAC                   : Yes
Format settings, ReFrames                : 3 frames
Codec ID                                 : avc1
Codec ID/Info                            : Advanced Video Coding
Duration                                 : 2h 10mn
Bit rate                                 : 679 Kbps
Width                                    : 640 pixels
Height                                   : 272 pixels
Display aspect ratio                     : 2.40:1
Frame rate mode                          : Constant
Frame rate                               : 23.976 fps
Color space                              : YUV
Chroma subsampling                       : 4:2:0
Bit depth                                : 8 bits
Scan type                                : Progressive
Bits/(Pixel*Frame)                       : 0.163
Stream size                              : 634 MiB (84%)
Writing library                          : x264 core 128 r2216M 198a7ea
Encoding settings                        : cabac=1 / ref=3 / deblock=1:0:0 / analyse=0x1:0x131 / me=hex / subme=7 / psy=1 / psy_rd=1.00:0.20 / mixed_ref=1 / me_range=16 / chroma_me=1 / trellis=1 / 8x8dct=0 / cqm=0 / deadzone=21,11 / fast_pskip=1 / chroma_qp_offset=-3 / threads=4 / lookahead_threads=1 / sliced_threads=0 / nr=0 / decimate=1 / interlaced=0 / bluray_compat=0 / constrained_intra=0 / bframes=3 / b_pyramid=0 / b_adapt=2 / b_bias=0 / direct=3 / weightb=1 / open_gop=0 / weightp=0 / keyint=230 / keyint_min=23 / scenecut=40 / intra_refresh=0 / rc_lookahead=40 / rc=2pass / mbtree=1 / bitrate=679 / ratetol=1.0 / qcomp=0.60 / qpmin=10 / qpmax=51 / qpstep=4 / cplxblur=20.0 / qblur=0.5 / vbv_maxrate=5000 / vbv_bufsize=1835 / nal_hrd=none / ip_ratio=1.40 / aq=1:1.00
Language                                 : English
Encoded date                             : UTC 2014-07-17 16:57:49
Tagged date                              : UTC 2014-07-17 16:57:49

Audio
ID                                       : 2
Format                                   : AAC
Format/Info                              : Advanced Audio Codec
Format profile                           : LC
Codec ID                                 : 40
Duration                                 : 2h 10mn
Bit rate mode                            : Constant
Bit rate                                 : 128 Kbps
Channel(s)                               : 2 channels
Channel positions                        : Front: L R
Sampling rate                            : 48.0 KHz
Compression mode                         : Lossy
Delay relative to video                  : 42ms
Stream size                              : 120 MiB (16%)
Language                                 : Russian
Encoded date                             : UTC 2014-07-17 16:57:49
Tagged date                              : UTC 2014-07-17 16:57:49
загрузка...
Правила, инструкции, FAQ!!!
Торрент  Добавлен [02 авг 2014, 16:54] Скачать торрент Магнет ссылка
Скачать торрент
[ Размер 15.35 КБ / Просмотров 16 ]

Статус
Проверен 
 
Размер  758.28 МБ
Приватный: Нет (DHT включён)
.torrent скачан  0
Как залить торрент? | Как скачать Torrent? | Ошибка в торренте? Качайте магнет  


     Отправить личное сообщение
   
Страница 1 из 1
Показать сообщения за:  Поле сортировки  
Начать новую тему Ответить на тему

   Похожие торренты   Автор   Ответы   Просмотры   Последнее сообщение 
В этой теме нет новых непрочитанных сообщений. Скачать торрент Проверен Need for Speed: Жажда скорости / Need for Speed (2014) HDRip | Чистый звук

в форуме Боевики, Размер: 1.46 ГБ, Здоровье: 100%

Anonymous

0
1|0

149
0

15 июл 2014, 12:07

Anonymous Перейти к последнему сообщению

В этой теме нет новых непрочитанных сообщений. Скачать торрент Проверен Need for Speed: Жажда скорости / Need for Speed (2014) BDRip 1080p | Лицензия

в форуме 720p | 1080p, Размер: 8.12 ГБ, Здоровье: 100%

Гость

0
50|29

222
6

15 июл 2014, 12:13

Гость Перейти к последнему сообщению

В этой теме нет новых непрочитанных сообщений. Скачать торрент Проверен Need for Speed: Жажда скорости / Need for Speed (2014) BDRip 720p | Лицензия

в форуме Боевики, Размер: 5.54 ГБ, Здоровье: 100%

Гость

0
8|0

261
0

15 июл 2014, 12:10

Гость Перейти к последнему сообщению

В этой теме нет новых непрочитанных сообщений. Скачать торрент Проверен Need for Speed: Жажда скорости / Need for Speed (2014) BDRip [1080p] 3D [Вертикальная анаморфная стереопара]

в форуме HD-Video в 3D, Размер: 12.47 ГБ, Здоровье: 100%

Anonymous

0
91|2

161
0

19 июл 2014, 23:25

Anonymous Перейти к последнему сообщению

В этой теме нет новых непрочитанных сообщений. Скачать торрент Проверен [VIDEO] 3 дня на убийство / 3 Days to Kill (МакДжи / McG) [2014, боевик, криминал, триллер, драма, WEB-DLRip] [MP4, 640x] [Theatrical Cut] Dub iTunes

в форуме Видео для смартфонов и КПК, Размер: 679.21 МБ, Здоровье: 100%

Anonymous

0
8|2

158
0

02 авг 2014, 16:55

Anonymous Перейти к последнему сообщению



Сейчас этот форум просматривают: нет зарегистрированных пользователей и гости: 2


Вы не можете начинать темы
Вы не можете отвечать на сообщения
Вы не можете редактировать свои сообщения
Вы не можете удалять свои сообщения
Вы не можете добавлять вложения

Перейти:  
Ресурс не предоставляет электронные версии произведений, а занимается лишь коллекционированием и каталогизацией ссылок, присылаемых и публикуемых на форуме нашими читателями. Если вы являетесь правообладателем какого-либо представленного материала и не желаете чтобы ссылка на него находилась в нашем каталоге, свяжитесь с нами и мы незамедлительно удалим её. Файлы для обмена на трекере предоставлены пользователями сайта, и администрация не несёт ответственности за их содержание. Просьба не заливать файлы, защищенные авторскими правами, а также файлы нелегального содержания!
cron