На всех торрентах на трекере установлена скидка на скачивание в размере 100 процентов(а).
 Возможность скачивания торрента НЕ зависит от ограничений при низком ратио, низком аплоаде, требуемом ратио или требуемом аплоаде.


Начать новую тему Ответить на тему
Статистика раздачи
Размер: 747.12 МБ | Добавлен: 21 окт 2014, 20:59 | Скачали: 2
Сидеров: 40  [0 байт/сек]    Личеров: 13  [0 байт/сек]
Пред. тема | След. тема 

Автор
Сообщение

СообщениеДобавлено: 21 окт 2014, 20:59 

Ответить с цитатой 


Небеса обетованные


Жанр: трагикомедия
Год выпуска: 1991
Продолжительность: 01:57:34

Режиссёр: Эльдар Рязанов

В ролях: Лия Ахеджакова, Ольга Волкова, Валентин Гафт, Леонид Броневой, Олег Басилашвили, Светлана Немоляева, Наталья Гундарева, Михаил Филиппов, Сергей Арцибашев, Вячеслав Невинный, Роман Карцев, Александр Пашутин, Наталья Щукина, Нина Русланова, Джон Кохан, Александр Панкратов-Чёрный, Александр Белявский, Сергей Данилевич, Мария Виноградова, Татьяна Гаврилова, Валерий Носик, Станислав Садальский, Федор Дунаевский, Игорь Ветров, Людмила Иванова, Татьяна Кравченко, Зинаида Кулакова, Юрий Митрофанов, Нина Агапова, Александр Пятков, Виталий Леонов, Виктор Махмутов, Эльдар Рязанов, Тамара Максимова

Описание: Трагикомическая история о бездомных людях, живущих на городской свалке, об их судьбах, радостях и горестях. Они борются за место под солнцем с городскими властями, отстаивая свое право жить на земле, не страшась даже танков, посланных чиновниками...



Качество видео: DVDRip
Формат видео: AVI

Видео: 640x480, XviD, 25 fps, 751 Kbps
Аудио: MP3, 48 kHz, stereo, 128 kbps

Format : AVI
Format/Info : Audio Video Interleave
File size : 747 MiB
Duration : 1h 57mn
Overall bit rate : 888 Kbps
Writing application : VirtualDubMod 1.5.10.3 (build 2550/release)
Writing library : VirtualDubMod build 2550/release

Video
ID : 0
Format : MPEG-4 Visual
Format profile : Advanced Simple@L5
Format settings, BVOP : 1
Format settings, QPel : No
Format settings, GMC : No warppoints
Format settings, Matrix : Custom
Codec ID : XVID
Codec ID/Hint : XviD
Duration : 1h 57mn
Bit rate : 751 Kbps
Width : 640 pixels
Height : 480 pixels
Display aspect ratio : 4:3
Frame rate : 25.000 fps
Color space : YUV
Chroma subsampling : 4:2:0
Bit depth : 8 bits
Scan type : Progressive
Compression mode : Lossy
Bits/(Pixel*Frame) : 0.098
Stream size : 631 MiB (84%)
Writing library : XviD 1.2.1 (UTC 2008-12-04)

Audio
ID : 1
Format : MPEG Audio
Format version : Version 1
Format profile : Layer 3
Codec ID : 55
Codec ID/Hint : MP3
Duration : 1h 57mn
Bit rate mode : Constant
Bit rate : 128 Kbps
Channel(s) : 2 channels
Sampling rate : 48.0 KHz
Compression mode : Lossy
Stream size : 108 MiB (14%)
Alignment : Aligned on interleaves
Interleave, duration : 40 ms (1.00 video frame)
Interleave, preload duration : 504 ms
Writing library : LAME3.98r
Encoding settings : -m s -V 4 -q 2 -lowpass 17 -b 128
загрузка...
Правила, инструкции, FAQ!!!
Торрент  Добавлен [21 окт 2014, 20:59] Скачать торрент Магнет ссылка
Скачать торрент
[ Размер 15.1 КБ / Просмотров 36 ]

Статус
Проверен 
 
Размер  747.12 МБ
Приватный: Нет (DHT включён)
.torrent скачан  2
Как залить торрент? | Как скачать Torrent? | Ошибка в торренте? Качайте магнет  


     Отправить личное сообщение
   
Страница 1 из 1
Показать сообщения за:  Поле сортировки  
Начать новую тему Ответить на тему

   Похожие торренты   Автор   Ответы   Просмотры   Последнее сообщение 
В этой теме нет новых непрочитанных сообщений. Скачать торрент Проверен [iPhone] Дайте жалобную книгу (Эльдар Рязанов) [1964, Комедия, DVDRip]

в форуме Фильмы для iPod, iPhone, iPad, Размер: 470.62 МБ, Здоровье: 100%

Anonymous

0
1|0

22
0

24 дек 2017, 22:24

Anonymous Перейти к последнему сообщению

В этой теме нет новых непрочитанных сообщений. Скачать торрент Проверен [iPod] Служебный роман (Эльдар Рязанов) [1977, Комедия, Мелодрама, DVDRip]

в форуме Фильмы для iPod, iPhone, iPad, Размер: 670.99 МБ, Здоровье: 100%

Anonymous

0
3|2

30
0

24 дек 2017, 22:50

Anonymous Перейти к последнему сообщению

В этой теме нет новых непрочитанных сообщений. Скачать торрент Проверен [iPhone] Ирония судьбы, или С легким паром! (Эльдар Рязанов) [1975, Комедия, Мелодрама][DVDRip - AVC., 480x360]

в форуме Фильмы для iPod, iPhone, iPad, Размер: 1.37 ГБ, Здоровье: 100%

Anonymous

0
29|8

43
1

24 дек 2017, 22:48

Anonymous Перейти к последнему сообщению

В этой теме нет новых непрочитанных сообщений. Скачать торрент Проверен Ирония судьбы, или С легким паром! (Эльдар Рязанов) [1975, СССР, мелодрама, комедия, DVDRip, 480p] + Original

в форуме Фильмы для iPod, iPhone, iPad, Размер: 2.1 ГБ, Здоровье: 100%

Anonymous

0
23|4

52
1

24 дек 2017, 23:08

Anonymous Перейти к последнему сообщению

В этой теме нет новых непрочитанных сообщений. Скачать торрент Проверен Невероятные приключения итальянцев в России (Эльдар Рязанов) [1973, СССР, Италия, комедия, приключения, DVDRip SD (480p)] Original

в форуме Фильмы для iPod, iPhone, iPad, Размер: 1.77 ГБ, Здоровье: 100%

Гость

0
18|5

161
2

18 май 2015, 10:39

Гость Перейти к последнему сообщению



Сейчас этот форум просматривают: нет зарегистрированных пользователей и гости: 0


Вы не можете начинать темы
Вы не можете отвечать на сообщения
Вы не можете редактировать свои сообщения
Вы не можете удалять свои сообщения
Вы не можете добавлять вложения

Перейти:  
Ресурс не предоставляет электронные версии произведений, а занимается лишь коллекционированием и каталогизацией ссылок, присылаемых и публикуемых на форуме нашими читателями. Если вы являетесь правообладателем какого-либо представленного материала и не желаете чтобы ссылка на него находилась в нашем каталоге, свяжитесь с нами и мы незамедлительно удалим её. Файлы для обмена на трекере предоставлены пользователями сайта, и администрация не несёт ответственности за их содержание. Просьба не заливать файлы, защищенные авторскими правами, а также файлы нелегального содержания!
cron