На всех торрентах на трекере установлена скидка на скачивание в размере 100 процентов(а).
 Возможность скачивания торрента НЕ зависит от ограничений при низком ратио, низком аплоаде, требуемом ратио или требуемом аплоаде.


Начать новую тему Ответить на тему
Статистика раздачи
Размер: 2.91 ГБ | Добавлен: 21 окт 2014, 20:55 | Скачали: 2
Сидеров: 66  [0 байт/сек]    Личеров: 25  [0 байт/сек]
Пред. тема | След. тема 

Автор
Сообщение

СообщениеДобавлено: 21 окт 2014, 20:55 

Ответить с цитатой 

Не бойся, я с тобой!
Жанр: музыкальная комедия, приключения
Год выпуска: 1981
Продолжительность: ~02:27:35

Режиссёр: Юлий Гусман

В ролях: Лев Дуров, Сергей Юрский, Мухтарбек Кантемиров, Полад Бюль-Бюль Оглы, Гамида Омарова, Гасан Турабов, Мирза Бабаев, Александр Шаровский.

Описание: Циркач, скачущий на коне и стреляющий в надувные шарики в руках своего друга и напарника, получает письмо о том, что его бабушка тяжело больна. Несмотря на то, что его, возможно, ждет смерть из-за старой кровной мести, он собирается ехать. Напарник, волнуясь за товарища, отправляется вместе с ним. Приключения начинаются после того, как Дуров попросил одного из джигитов снять шапочку в местном театре, где ставили «Лейла и Меджнун». Тот шапочку снять отказался, и напарник ее снял саморучно.

Формат видео: MKV

Видео: 704x528 (1,(3):1), 25.000 fps, x264, High@L4.1 ~2435 kbps avg, 0.262 bit/pixel
Аудио: AC3, 384 Kbps, 48.0 KHz, 5.1 ch

Цитата:
Цитата:
[*]Присутствует плавающий кроп

Формат : Matroska
Версия формата : Version 2
Размер файла : 1,33 Гбайт
Продолжительность : 1 ч. 7 м.
Общий поток : 2812 Кбит/сек
Дата кодирования : UTC 2012-05-20 11:44:38
Программа кодирования : mkvmerge v5.5.0 ('Healer') built on Apr 6 2012 21:43:24
Библиотека кодирования : libebml v1.2.3 + libmatroska v1.3.0

Видео
Идентификатор : 1
Формат : AVC
Формат/Информация : Advanced Video Codec
Профиль формата : High@L4.1
Параметр CABAC формата : Да
Параметр ReFrames формата : 11 кадров
Идентификатор кодека : V_MPEG4/ISO/AVC
Продолжительность : 1 ч. 7 м.
Битрейт : 2435 Кбит/сек
Ширина : 704 пикселя
Высота : 528 пикселей
Соотношение сторон : 4:3
Частота кадров : 25,000 кадров/сек
Цветовое пространство : YUV
Субдискретизация насыщенности : 4:2:0
Битовая глубина : 8 бит
Тип развёртки : Прогрессивная
Бит/(Пиксели*Кадры) : 0.262
Размер потока : 1,12 Гбайт (84%)
Заголовок : Rip by Captain Evidence
Библиотека кодирования : x264 core 120 r2164 da19765
Настройки программы : cabac=1 / ref=11 / deblock=1:-2:-2 / analyse=0x3:0x113 / me=umh / subme=11 / psy=1 / psy_rd=1.10:0.15 / mixed_ref=1 / me_range=48 / chroma_me=1 / trellis=2 / 8x8dct=1 / cqm=0 / deadzone=21,11 / fast_pskip=0 / chroma_qp_offset=-5 / threads=6 / sliced_threads=0 / nr=0 / decimate=1 / interlaced=0 / bluray_compat=0 / constrained_intra=0 / bframes=9 / b_pyramid=2 / b_adapt=2 / b_bias=0 / direct=1 / weightb=1 / open_gop=0 / weightp=2 / keyint=250 / keyint_min=25 / scenecut=40 / intra_refresh=0 / rc_lookahead=60 / rc=2pass / mbtree=0 / bitrate=2435 / ratetol=1.0 / qcomp=0.60 / qpmin=10 / qpmax=69 / qpstep=4 / cplxblur=20.0 / qblur=0.5 / vbv_maxrate=62500 / vbv_bufsize=50000 / nal_hrd=none / ip_ratio=1.40 / pb_ratio=1.30 / aq=1:0.80
Язык : English
Default : Да
Forced : Нет

Аудио
Идентификатор : 2
Формат : AC-3
Формат/Информация : Audio Coding 3
Расширение режима : CM (complete main)
Параметр Endianness формата : Big
Идентификатор кодека : A_AC3
Продолжительность : 1 ч. 7 м.
Вид битрейта : Постоянный
Битрейт : 384 Кбит/сек
Каналы : 6 каналов
Расположение каналов : Front: L C R, Side: L R, LFE
Частота : 48,0 КГц
Битовая глубина : 16 бит
Метод сжатия : С потерями
Размер потока : 186 Мбайт (14%)
Язык : Russian
Default : Да
Forced : Нет

Меню
00:00:00.000 : :Chapter 01
00:00:07.200 : :Chapter 02
00:01:44.040 : :Chapter 03
00:04:11.520 : :Chapter 04
00:05:47.640 : :Chapter 05
00:07:39.840 : :Chapter 06
00:12:59.040 : :Chapter 07
00:17:31.200 : :Chapter 08
00:23:47.760 : :Chapter 09
00:25:57.600 : :Chapter 10
00:30:28.560 : :Chapter 11
00:34:25.560 : :Chapter 12
00:40:18.720 : :Chapter 13
00:45:30.000 : :Chapter 14
00:50:55.680 : :Chapter 15
00:57:34.920 : :Chapter 16
01:03:05.400 : :Chapter 17
01:06:03.480 : :Chapter 18
01:07:30.800 : :Chapter 19
Формат : Matroska
Версия формата : Version 2
Размер файла : 1,58 Гбайт
Продолжительность : 1 ч. 19 м.
Общий поток : 2828 Кбит/сек
Дата кодирования : UTC 2012-05-20 11:44:44
Программа кодирования : mkvmerge v5.5.0 ('Healer') built on Apr 6 2012 21:43:24
Библиотека кодирования : libebml v1.2.3 + libmatroska v1.3.0

Видео
Идентификатор : 1
Формат : AVC
Формат/Информация : Advanced Video Codec
Профиль формата : High@L4.1
Параметр CABAC формата : Да
Параметр ReFrames формата : 11 кадров
Идентификатор кодека : V_MPEG4/ISO/AVC
Продолжительность : 1 ч. 19 м.
Битрейт : 2388 Кбит/сек
Ширина : 704 пикселя
Высота : 528 пикселей
Соотношение сторон : 4:3
Частота кадров : 25,000 кадров/сек
Цветовое пространство : YUV
Субдискретизация насыщенности : 4:2:0
Битовая глубина : 8 бит
Тип развёртки : Прогрессивная
Бит/(Пиксели*Кадры) : 0.257
Размер потока : 1,33 Гбайт (84%)
Заголовок : Rip by Captain Evidence
Язык : English
Default : Да
Forced : Нет

Аудио
Идентификатор : 2
Формат : AC-3
Формат/Информация : Audio Coding 3
Расширение режима : CM (complete main)
Параметр Endianness формата : Big
Идентификатор кодека : A_AC3
Продолжительность : 1 ч. 19 м.
Вид битрейта : Постоянный
Битрейт : 384 Кбит/сек
Каналы : 6 каналов
Расположение каналов : Front: L C R, Side: L R, LFE
Частота : 48,0 КГц
Битовая глубина : 16 бит
Метод сжатия : С потерями
Задержка видео : 24 мс.
Размер потока : 220 Мбайт (14%)
Язык : Russian
Default : Да
Forced : Нет

Меню
01:07:38.120 : :Chapter 19
---[NoImage] x264 [info]: frame I:1397 Avg QP:20.14 size: 62178
---[NoImage] x264 [info]: frame P:44911 Avg QP:22.53 size: 21714
---[NoImage] x264 [info]: frame B:175090 Avg QP:24.07 size: 9327
---[NoImage] x264 [info]: consecutive B-frames: 1.0% 1.2% 5.4% 20.1% 16.8% 49.5% 4.5% 0.8% 0.4% 0.2%
---[NoImage] x264 [info]: mb I I16..4: 3.8% 79.7% 16.5%
---[NoImage] x264 [info]: mb P I16..4: 0.4% 13.5% 1.4% P16..4: 32.6% 37.7% 13.0% 0.0% 0.0% skip: 1.5%
---[NoImage] x264 [info]: mb B I16..4: 0.0% 2.2% 0.2% B16..8: 34.1% 21.4% 3.6% direct:10.6% skip:27.9% L0:32.7% L1:41.0% BI:26.3%
---[NoImage] x264 [info]: 8x8 transform intra:88.1% inter:57.1%
---[NoImage] x264 [info]: coded y,uvDC,uvAC intra: 96.9% 86.5% 60.6% inter: 34.7% 31.3% 5.2%
---[NoImage] x264 [info]: i16 v,h,dc,p: 27% 21% 8% 43%
---[NoImage] x264 [info]: i8 v,h,dc,ddl,ddr,vr,hd,vl,hu: 7% 8% 6% 10% 15% 13% 15% 12% 15%
---[NoImage] x264 [info]: i4 v,h,dc,ddl,ddr,vr,hd,vl,hu: 8% 7% 3% 9% 16% 15% 16% 12% 15%
---[NoImage] x264 [info]: i8c dc,h,v,p: 38% 25% 18% 18%
---[NoImage] x264 [info]: Weighted P-Frames: Y:18.6% UV:8.5%
---[NoImage] x264 [info]: ref P L0: 46.2% 12.4% 16.4% 7.2% 5.1% 3.9% 3.2% 1.8% 1.5% 1.2% 0.9% 0.2% 0.0%
---[NoImage] x264 [info]: ref B L0: 82.1% 11.1% 2.8% 1.3% 0.9% 0.7% 0.5% 0.3% 0.2% 0.1%
---[NoImage] x264 [info]: ref B L1: 96.1% 3.9%
---[NoImage] x264 [info]: kb/s:2434.72
---[NoImage] encoded 221398 frames, 11.11 fps, 2434.72 kb/s
На роль Сан Саныча у Гусмана было три претендента: Николай Караченцов, Ролан Быков и Лев Дуров. На вопрос режиссера, кого Мухтарбек видит в этой роли, последний, не задумываясь, ответил: «Леву Дурова!».Мухтарбек Кантемиров выполнял трюки сам, Дуров каратэ не владел, и в боевых сценах его заменял дублёр. Иногда это заметно (дублёр снят сбоку и со спины, лица не видно, он того же роста, но у него немного другая комплекция).Съёмки фильма поддерживал спорткомитет Азербайджана, заместитель председателя которого, Муромский, был другом Гусмана. В съёмках участвовали спортсмены из секций каратэ и таэквандо, а также ученики и коллеги Мухтарбека Кантемирова, позднее ставшие актёрами конного театра «Каскадёр».[*]По первоначальной идее, рукопашный бой в фильме — каратэ, изученное Сан Санычем где-то на Востоке, но к моменту выхода фильма отношение властей к каратэ уже стало неодобрительным, поэтому в фильм специально была доснята сцена, где Сан Саныч говорит о том, что его техника боя происходит от народных стилей борьбы.

загрузка...
Правила, инструкции, FAQ!!!
Торрент  Добавлен [21 окт 2014, 20:55] Скачать торрент Магнет ссылка
Скачать торрент
[ Размер 15.19 КБ / Просмотров 24 ]

Статус
Проверен 
 
Размер  2.91 ГБ
Приватный: Нет (DHT включён)
.torrent скачан  2
Как залить торрент? | Как скачать Torrent? | Ошибка в торренте? Качайте магнет  


     Отправить личное сообщение
   
Страница 1 из 1
Показать сообщения за:  Поле сортировки  
Начать новую тему Ответить на тему

   Похожие торренты   Автор   Ответы   Просмотры   Последнее сообщение 
В этой теме нет новых непрочитанных сообщений. Скачать торрент Проверен Невероятные приключения итальянцев в России (Эльдар Рязанов) [1973, СССР, Италия, комедия, приключения, DVDRip SD (480p)] Original

в форуме Фильмы для iPod, iPhone, iPad, Размер: 1.77 ГБ, Здоровье: 100%

Гость

0
18|5

161
2

18 май 2015, 10:39

Гость Перейти к последнему сообщению

В этой теме нет новых непрочитанных сообщений. Скачать торрент Проверен [iPhone] Невероятные приключения итальянцев в России (Эльдар Рязанов, Франко Проспери /Franco Prosperi) [1973, Комедия, приключения, DVDRip]

в форуме Фильмы для iPod, iPhone, iPad, Размер: 451.03 МБ, Здоровье: 50%

Anonymous

0
2|4

30
0

24 дек 2017, 22:54

Anonymous Перейти к последнему сообщению

В этой теме нет новых непрочитанных сообщений. Скачать торрент Проверен Сказка, рассказанная ночью (Ирина Тарковская) [1981, фэнтези, драма, приключения, DVDRip]

в форуме Детское, Семейное кино, Размер: 746.78 МБ, Здоровье: 100%

Гость

0
20|6

159
0

11 апр 2016, 23:42

Гость Перейти к последнему сообщению

В этой теме нет новых непрочитанных сообщений. Скачать торрент Проверен [VIDEO4PDA]Берегите женщин, (Виктор Макаров, Александр Полынников) [1981 г., Комедия, DVDRip] [MP4, 320*240]

в форуме Видео для смартфонов и КПК, Размер: 464.65 МБ, Здоровье: 100%

Anonymous

0
52|13

85
1

02 авг 2014, 17:03

Anonymous Перейти к последнему сообщению

В этой теме нет новых непрочитанных сообщений. Скачать торрент Проверен Озорные повороты (Кальё Кийск, Юлий Кун) [1959, Комедия, DVDScr]

в форуме Кино СССР, Размер: 1.37 ГБ, Здоровье: 100%

Anonymous

0
21|7

125
2

21 окт 2014, 20:58

Anonymous Перейти к последнему сообщению



Сейчас этот форум просматривают: нет зарегистрированных пользователей и гости: 0


Вы не можете начинать темы
Вы не можете отвечать на сообщения
Вы не можете редактировать свои сообщения
Вы не можете удалять свои сообщения
Вы не можете добавлять вложения

Перейти:  
Ресурс не предоставляет электронные версии произведений, а занимается лишь коллекционированием и каталогизацией ссылок, присылаемых и публикуемых на форуме нашими читателями. Если вы являетесь правообладателем какого-либо представленного материала и не желаете чтобы ссылка на него находилась в нашем каталоге, свяжитесь с нами и мы незамедлительно удалим её. Файлы для обмена на трекере предоставлены пользователями сайта, и администрация не несёт ответственности за их содержание. Просьба не заливать файлы, защищенные авторскими правами, а также файлы нелегального содержания!
cron