На всех торрентах на трекере установлена скидка на скачивание в размере 100 процентов(а).
 Возможность скачивания торрента НЕ зависит от ограничений при низком ратио, низком аплоаде, требуемом ратио или требуемом аплоаде.


Начать новую тему Ответить на тему
Статистика раздачи
Размер: 1.24 ГБ | Добавлен: 09 ноя 2014, 21:44 | Скачали: 0
Сидеров: 89  [0 байт/сек]    Личеров: 98  [0 байт/сек]
Пред. тема | След. тема 

Автор
Сообщение

СообщениеДобавлено: 09 ноя 2014, 21:44 

Ответить с цитатой 

Год выпуска: 2004
Производство: Россия, Украина, Одесская киностудия ("Пигмалион Продакшн")
Жанр: Драма, комедия, криминал

Описание фильма:
Картина представляет собой современную интерпретацию мемуаров знаменитого российского сыщика царских времен Аркадия Кошко. Главный герой — настройщик роялей Андрюша — одновременно счастливейший и несчастнейший человек на свете. Счастливейший — потому что он страстно влюблен в самую прекрасную из женщин — Лину, причем она отвечает ему взаимностью. Но Андрей — увы — беден, тогда как Лина, избалованная дочка богатых родителей, привыкла жить в достатке и роскоши.
Казалось, влюбленный до безумия герой обречен страдать вечно. На какие только ухищрения не идет бедный настройщик, чтобы обеспечить своей возлюбленной достойное существование! Чем он только не занимается! Но честный труд не приносит ничего, кроме жалких крох… И вот его страсть приобретает совсем нездоровый оттенок. Любовь к изнеженной блондинке вынуждает Андрюшу переступить роковую черту: и он готов пойти на все — предать украсть, и даже …убить!

Режиссер: Кира Муратова
Актеры: Алла Демидова, Нина Русланова, Георгий Делиев, Рената Литвинова, Сергей Бехтерев, Юрий Шлыков, Леонид Павловский, Ута Кильтер, Жан Даниэль, Наталья Бузько, Анатолий Падука, Владимир Комаров, Ирина Панова, Николай Седнев, Лилия Стихина, Ольга Попова

Продолжительность: 02:35:16
Качество видео: DVDRip



Видеокодек: DivX 4
Битрейт видео: 999 Kbps
Размер кадра: 640x480
Аудиокодек: MP3, 2 channels
Битрейт аудио: 128 Kbps
Nastroijik.avi
Format : AVI
Format/Info : Audio Video Interleave
File size : 1.24 GiB
Duration : 2h 35mn
Overall bit rate : 1 140 Kbps

Video
ID : 0
Format : MPEG-4 Visual
Format profile : Simple@L1
Format settings, BVOP : No
Format settings, QPel : No
Format settings, GMC : No warppoints
Format settings, Matrix : Default (H.263)
Codec ID : DIVX
Codec ID/Info : Project Mayo
Codec ID/Hint : DivX 4
Duration : 2h 35mn
Source duration : 2h 35mn
Bit rate : 999 Kbps
Width : 640 pixels
Height : 480 pixels
Display aspect ratio : 4:3
Frame rate : 25.000 fps
Color space : YUV
Chroma subsampling : 4:2:0
Bit depth : 8 bits
Scan type : Progressive
Compression mode : Lossy
Bits/(Pixel*Frame) : 0.130
Stream size : 1.08 GiB (88%)
Writing library : avc2.0.11.1110

Audio
ID : 1
Format : MPEG Audio
Format version : Version 1
Format profile : Layer 3
Mode : Joint stereo
Mode extension : MS Stereo
Codec ID : 55
Codec ID/Hint : MP3
Duration : 2h 35mn
Bit rate mode : Constant
Bit rate : 128 Kbps
Channel(s) : 2 channels
Sampling rate : 48.0 KHz
Compression mode : Lossy
Stream size : 142 MiB (11%)
Alignment : Aligned on interleaves
Interleave, duration : 24 ms (0.60 video frame)
Скриншоты:

загрузка...
Правила, инструкции, FAQ!!!
Торрент  Добавлен [09 ноя 2014, 21:44] Скачать торрент Магнет ссылка
Скачать торрент
[ Размер 13.05 КБ / Просмотров 26 ]

Статус
Проверен 
 
Размер  1.24 ГБ
Приватный: Нет (DHT включён)
.torrent скачан  0
Как залить торрент? | Как скачать Torrent? | Ошибка в торренте? Качайте магнет  


     Отправить личное сообщение
   
Страница 1 из 1
Показать сообщения за:  Поле сортировки  
Начать новую тему Ответить на тему

   Похожие торренты   Автор   Ответы   Просмотры   Последнее сообщение 
В этой теме нет новых непрочитанных сообщений. Скачать торрент Тройная подстава / 3-Way (2004) (Скотт Зил / Scott Ziehl) [2004 г., Боевик, Драма, Триллер, DVDRip]

в форуме Боевики, Размер: 699.1 МБ, Здоровье: 100%

Anonymous

0
2|0

179
1

24 апр 2014, 14:09

Anonymous Перейти к последнему сообщению

В этой теме нет новых непрочитанных сообщений. Скачать торрент Проверен 5x2 / 5x2 (2004) DVDRip-AVC | P

в форуме Драмы, Мелодрамы, Размер: 1.45 ГБ, Здоровье: 100%

Гость

0
21|6

301
84

15 ноя 2015, 23:55

Гость Перейти к последнему сообщению

В этой теме нет новых непрочитанных сообщений. Скачать торрент Боец [01-12 из 12] (2004) DVDRip | КПК

в форуме Видео для смартфонов и КПК, Размер: 2.25 ГБ, Здоровье: 100%

Anonymous

0
1|0

136
0

05 май 2013, 14:58

Anonymous Перейти к последнему сообщению

В этой теме нет новых непрочитанных сообщений. Закрыто правообладателем 32 декабря (2004) DVDRip Данный торрент является блокированным, причина: Закрыто правообладателем

в форуме Драмы, Мелодрамы, Размер: 1.46 ГБ, Здоровье: 0%

Гость

0
0|0

93
3

23 дек 2013, 08:13

Гость Перейти к последнему сообщению

В этой теме нет новых непрочитанных сообщений. Скачать торрент Проверен Various Artists - 80's All In One [Vol.1-7] (2004) DVDRip

в форуме Клипы, Размер: 15.28 ГБ, Здоровье: 100%

Anonymous

0
41|16

565
30

27 авг 2014, 06:18

Anonymous Перейти к последнему сообщению



Сейчас этот форум просматривают: нет зарегистрированных пользователей и гости: 0


Вы не можете начинать темы
Вы не можете отвечать на сообщения
Вы не можете редактировать свои сообщения
Вы не можете удалять свои сообщения
Вы не можете добавлять вложения

Перейти:  
Ресурс не предоставляет электронные версии произведений, а занимается лишь коллекционированием и каталогизацией ссылок, присылаемых и публикуемых на форуме нашими читателями. Если вы являетесь правообладателем какого-либо представленного материала и не желаете чтобы ссылка на него находилась в нашем каталоге, свяжитесь с нами и мы незамедлительно удалим её. Файлы для обмена на трекере предоставлены пользователями сайта, и администрация не несёт ответственности за их содержание. Просьба не заливать файлы, защищенные авторскими правами, а также файлы нелегального содержания!
cron