На всех торрентах на трекере установлена скидка на скачивание в размере 100 процентов(а).
 Возможность скачивания торрента НЕ зависит от ограничений при низком ратио, низком аплоаде, требуемом ратио или требуемом аплоаде.


Начать новую тему Ответить на тему
Статистика раздачи
Размер: 1.45 ГБ | Добавлен: 21 окт 2014, 21:00 | Скачали: 5
Сидеров: 24  [0 байт/сек]    Личеров: 6  [0 байт/сек]
Пред. тема | След. тема 

Автор
Сообщение

СообщениеДобавлено: 21 окт 2014, 21:00 

Ответить с цитатой 

Начало
Жанр: мелодрама
Год выпуска: 1970
Продолжительность: 01:26:09
Режиссёр: Глеб Панфилов
В ролях:
Инна Чурикова, Валентина Теличкина, Татьяна Степанова, Леонид Куравлев, Михаил Кононов, Нина Скоморохова, Татьяна Бедова, Юрий Клепиков, Геннадий Беглов, Юрий Визбор, Вячеслав Васильев

Описание:
Девушка из провинциального русского городка мечтает стать актрисой, а пока самозабвенно играет Бабу Ягу в городском клубе. Вот там-то и находит ее режиссер, который намерен снять фильм о Жанне д'Арк. Сбывается мечта: ее приглашают на главную роль, и у нее начинается совсем другая жизнь, полная настоящих творческих мук и озарений.
Sample | Kinopoisk
Качество видео: DVDRip-AVC
Формат видео: MKV

Видео: x264 (High@L4.1); Анаморф 712@1012x432; Display aspect ratio: 2.35:1, 25.000 fps, 2222 Kbps
Аудио: Оригинал: AC-3; 16 bit 48 Khz; Mono 192 Kbps; CBR

avs [info]: 712x432p 64:45 @ 25/1 fps (cfr)
x264 [info]: using SAR=64/45
x264 [info]: using cpu capabilities: MMX2 SSE2Fast SSSE3 SSE4.2
x264 [info]: profile High, level 4.1

x264 [info]: frame I:636 Avg QP:18.17 size: 41263
x264 [info]: frame P:28412 Avg QP:19.86 size: 20147
x264 [info]: frame B:100178 Avg QP:22.02 size: 8356
x264 [info]: consecutive B-frames: 1.8% 2.3% 8.6% 20.6% 17.5% 43.7% 3.7% 1.1% 0.5% 0.0% 0.0% 0.1%
x264 [info]: mb I I16..4: 8.7% 71.4% 19.9%
x264 [info]: mb P I16..4: 1.2% 18.7% 1.9% P16..4: 29.7% 33.8% 11.2% 1.9% 0.2% skip: 1.3%
x264 [info]: mb B I16..4: 0.2% 5.1% 0.2% B16..8: 35.9% 18.4% 2.8% direct:10.2% skip:27.1% L0:40.7% L1:44.3% BI:15.0%
x264 [info]: 8x8 transform intra:87.6% inter:57.2%
x264 [info]: direct mvs spatial:98.6% temporal:1.4%
x264 [info]: coded y,uvDC,uvAC intra: 94.7% 0.0% 0.0% inter: 37.9% 0.0% 0.0%
x264 [info]: i16 v,h,dc,p: 21% 7% 9% 64%
x264 [info]: i8 v,h,dc,ddl,ddr,vr,hd,vl,hu: 13% 7% 12% 9% 11% 13% 10% 13% 12%
x264 [info]: i4 v,h,dc,ddl,ddr,vr,hd,vl,hu: 15% 6% 7% 9% 13% 16% 11% 13% 11%
x264 [info]: i8c dc,h,v,p: 61% 39% 0% 0%
x264 [info]: Weighted P-Frames: Y:27.7% UV:0.0%
x264 [info]: ref P L0: 36.5% 13.2% 14.7% 7.2% 5.6% 4.4% 3.7% 2.2% 2.0% 1.9% 1.7% 1.6% 1.5% 1.4% 1.4% 1.0%
x264 [info]: ref B L0: 77.8% 10.0% 3.6% 1.9% 1.4% 1.2% 0.9% 0.6% 0.5% 0.5% 0.4% 0.4% 0.4% 0.3% 0.2%
x264 [info]: ref B L1: 94.7% 5.3%
x264 [info]: kb/s:2222.00

x264 [total]: encoded 129226 frames, 14.47 fps, 2222.00 kb/s

General
Unique ID : 250385990786187431318101136817256375105 (0xBC5E96758A3F434CB6228ED46ADFA341)
Complete name : Начало.1970.mkv
Format : Matroska
Format version : Version 2
File size : 1.45 GiB
Duration : 1h 26mn
Overall bit rate : 2 416 Kbps
Movie name : «Начало»
Encoded date : UTC 2013-11-14 15:29:57
Writing application : mkvmerge v5.8.0 ('No Sleep / Pillow') built on Sep 2 2012 15:37:04
Writing library : libebml v1.2.3 + libmatroska v1.3.0
Comment : DVDRip-AVC
Original date released : November 14th 2013
Encoded by : imgeorgest®

Video
ID : 1
Format : AVC
Format/Info : Advanced Video Codec
Format profile : High@L4.1
Format settings, CABAC : Yes
Format settings, ReFrames : 16 frames
Codec ID : V_MPEG4/ISO/AVC
Duration : 1h 26mn
Bit rate : 2 222 Kbps
Width : 712 pixels
Height : 432 pixels
Display aspect ratio : 2.35:1
Original display aspect ratio : 2.35:1
Frame rate mode : Constant
Frame rate : 25.000 fps
Color space : YUV
Chroma subsampling : 4:2:0
Bit depth : 8 bits
Scan type : Progressive
Bits/(Pixel*Frame) : 0.289
Stream size : 1.31 GiB (90%)
Title : Начало.1970
Writing library : x264 core 140 r2377 1ca7bb9
Encoding settings : cabac=1 / ref=16 / deblock=1:-3:-2 / analyse=0x3:0x133 / me=umh / subme=11 / psy=1 / psy_rd=1.00:0.10 / mixed_ref=1 / me_range=48 / chroma_me=1 / trellis=2 / 8x8dct=1 / cqm=0 / deadzone=21,11 / fast_pskip=0 / chroma_qp_offset=-3 / threads=12 / lookahead_threads=3 / sliced_threads=0 / nr=0 / decimate=0 / interlaced=0 / bluray_compat=0 / constrained_intra=0 / bframes=11 / b_pyramid=2 / b_adapt=2 / b_bias=0 / direct=3 / weightb=1 / open_gop=0 / weightp=2 / keyint=250 / keyint_min=25 / scenecut=40 / intra_refresh=0 / rc_lookahead=60 / rc=2pass / mbtree=1 / bitrate=2222 / ratetol=1.0 / qcomp=0.70 / qpmin=0 / qpmax=69 / qpstep=4 / cplxblur=20.0 / qblur=0.5 / vbv_maxrate=50000 / vbv_bufsize=62500 / nal_hrd=none / filler=0 / ip_ratio=1.20 / aq=1:0.90
Language : Russian
Default : Yes
Forced : No
Color primaries : BT.601 PAL
Transfer characteristics : BT.470 System B, BT.470 System G
Matrix coefficients : BT.601

Audio
ID : 2
Format : AC-3
Format/Info : Audio Coding 3
Mode extension : CM (complete main)
Format settings, Endianness : Big
Codec ID : A_AC3
Duration : 1h 26mn
Bit rate mode : Constant
Bit rate : 192 Kbps
Channel(s) : 1 channel
Channel positions : Front: C
Sampling rate : 48.0 KHz
Bit depth : 16 bits
Compression mode : Lossy
Stream size : 118 MiB (8%)
Title : Оригинал: Оригинал AC-3; 16 bit 48 Khz; Mono 192 Kbps; CBR
Language : Russian
Default : Yes
Forced : No
загрузка...
Правила, инструкции, FAQ!!!
Торрент  Добавлен [21 окт 2014, 21:00] Скачать торрент Магнет ссылка
Скачать торрент
[ Размер 15.03 КБ / Просмотров 51 ]

Статус
Проверен 
 
Размер  1.45 ГБ
Приватный: Нет (DHT включён)
.torrent скачан  5
Как залить торрент? | Как скачать Torrent? | Ошибка в торренте? Качайте магнет  


     Отправить личное сообщение
   
Страница 1 из 1
Показать сообщения за:  Поле сортировки  
Начать новую тему Ответить на тему

   Похожие торренты   Автор   Ответы   Просмотры   Последнее сообщение 
В этой теме нет новых непрочитанных сообщений. Скачать торрент Проверен [MP4 176х144] Смешарики. Начало (2011) DVDRip

в форуме Видео для смартфонов и КПК, Размер: 195.91 МБ, Здоровье: 3%

Anonymous

0
1|31

349
0

25 окт 2014, 23:26

Anonymous Перейти к последнему сообщению

В этой теме нет новых непрочитанных сообщений. Скачать торрент Номад: Начало / Nomad the Beginning (2013) DVDRip | НТВ+

в форуме Фантастика, Фэнтези, Размер: 1.37 ГБ, Здоровье: 100%

Anonymous

0
81|1

56
613

02 окт 2013, 09:53

Anonymous Перейти к последнему сообщению

В этой теме нет новых непрочитанных сообщений. Скачать торрент Проверен (Rock, Electronic, Gothic, Pop) ex-Агата Кристи [Александр Козлов, Вадим Самойлов, Глеб Самойлов (Глеб СамойлоFF)] - Сольные проекты (7 альбомов) - 1982-2006, MP3, 128-320 kbps

в форуме Русский Рок, Размер: 476.54 МБ, Здоровье: 100%

Anonymous

0
50|19

383
3

23 авг 2016, 09:44

Anonymous Перейти к последнему сообщению

В этой теме нет новых непрочитанных сообщений. Скачать торрент Проверен (Neo-Post-Gothic, Rock, Acoustic) Глеб Самойлов (Агата Кристи, Глеб СамойлоFF & The MatriXX) - Творческий вечер в клубе "True Man" (Одесса) 04.12.2011, MP3, 128 kbps

в форуме Русский Рок, Размер: 95.03 МБ, Здоровье: 100%

Anonymous

0
4|3

107
1

22 авг 2016, 11:28

Anonymous Перейти к последнему сообщению

В этой теме нет новых непрочитанных сообщений. Скачать торрент Начало Времен / Year One (Харольд Рэмис / Harold Ramis) [2009 г., Приключения, Комедия, DVDRip]

в форуме Приключения, Размер: 1.45 ГБ, Здоровье: 100%

Anonymous

0
7|1

117
0

06 фев 2014, 11:45

Anonymous Перейти к последнему сообщению



Сейчас этот форум просматривают: нет зарегистрированных пользователей и гости: 0


Вы не можете начинать темы
Вы не можете отвечать на сообщения
Вы не можете редактировать свои сообщения
Вы не можете удалять свои сообщения
Вы не можете добавлять вложения

Перейти:  
Ресурс не предоставляет электронные версии произведений, а занимается лишь коллекционированием и каталогизацией ссылок, присылаемых и публикуемых на форуме нашими читателями. Если вы являетесь правообладателем какого-либо представленного материала и не желаете чтобы ссылка на него находилась в нашем каталоге, свяжитесь с нами и мы незамедлительно удалим её. Файлы для обмена на трекере предоставлены пользователями сайта, и администрация не несёт ответственности за их содержание. Просьба не заливать файлы, защищенные авторскими правами, а также файлы нелегального содержания!
cron