На всех торрентах на трекере установлена скидка на скачивание в размере 100 процентов(а).
 Возможность скачивания торрента НЕ зависит от ограничений при низком ратио, низком аплоаде, требуемом ратио или требуемом аплоаде.


Начать новую тему Ответить на тему
Статистика раздачи
Размер: 809.59 МБ | Добавлен: 13 фев 2014, 06:33 | Скачали: 0
Сидеров: 0  [0 байт/сек]    Личеров: 0  [0 байт/сек]
Пред. тема | След. тема 

Автор
Сообщение

СообщениеДобавлено: 13 фев 2014, 06:33 

Ответить с цитатой 

Музыка для танцев / Бал-ретро / Liscio / The Ball

Страна: Италия
Жанр: Комедия, драма
Год выпуска: 2006
Продолжительность: 01:17:50

Перевод: Одноголосый закадровый
Cубтитры: русские
Оригинальная аудиодорожка: итальянский

Режиссер: Клаудио Антонини / Claudio Antonini

В ролях: Лаура Моранте / Laura Morante, Умберто Морелли / Umberto Morelli, Антонио Катания / Antonio Catania, Массимо Чиаварро / Massimo Ciavarro, Джанни Кошия / Gianni Coscia, Джордано Ди Пьетро / Giordano Di Pietro, Антонино Брускетта / Antonino Bruschetta, Альберто Джиминьяни / Alberto Gimignani, Роберт Мэдисон / Robert Madison.

Описание: Рауль - одаренный 12-летний мальчуган. У его мамы профессиональной певицы Моники две страсти в жизни: мужчины и "liscio" - танцевальные мелодии 20-30-х годов. Мальчик не одобряет первого из этих увлечений, из-за которого он испытывает дискомфорт в классе и не может найти общий язык с матерью, сказать три главных и очень важных для нее слова. Рауль думает, что им с мамой просто не хватает правильного мужчины в доме, его выбор падает на школьного учителя музыки...



Сэмпл: http://multi-up.com/925499

Качество видео: DVDRip
Формат видео: AVI

Видео: 656x352 (1.86:1), 25 fps, XviD build 46 ~1113 kbps avg, 0.19 bit/pixel
Аудио 1: 48 kHz, MPEG Layer 3, 2 ch, ~192.00 kbps avg(Русский)
Аудио 2: 48 kHz, MPEG Layer 3, 2 ch, ~129.35 kbps avg(Итальянский)
Формат субтитров: softsub (SRT)
Доп. информация о субтитрах: Русские внешние (Владимир Даль)
MediaInfo
Общее
Полное имя : D:\Мои видеозаписи\Музыка для танцев\Музыка для танцев.avi
Формат : AVI
Формат/Информация : Audio Video Interleave
Размер файла : 810 Мбайт
Продолжительность : 1 ч. 17 м.
Режим общего битрейта : Переменный
Общий поток : 1454 Кбит/сек
Программа кодирования : VirtualDubModRus 1.5.10.2 (build 2542/release)
Библиотека кодирования : VirtualDubMod build 2542/release

Видео
Идентификатор : 0
Формат : MPEG-4 Visual
Профиль формата : Advanced Simple@L5
Параметр BVOP формата : 2
Параметр QPel формата : Нет
Параметр GMC формата : Без точки перехода
Параметр матрицы формата : Default (MPEG)
Идентификатор кодека : XVID
Идентификатор кодека/Подсказка : XviD
Продолжительность : 1 ч. 17 м.
Битрейт : 1115 Кбит/сек
Ширина : 656 пикселей
Высота : 352 пикселя
Соотношение сторон : 1,864
Частота кадров : 25,000 кадров/сек
Цветовое пространство : YUV
Субдискретизация насыщенности : 4:2:0
Битовая глубина : 8 бит
Тип развёртки : Прогрессивная
Метод сжатия : С потерями
Бит/(Пиксели*Кадры) : 0.193
Размер потока : 621 Мбайт (77%)
Библиотека кодирования : XviD 1.1.2 (UTC 2006-11-01)

Аудио #1
Идентификатор : 1
Формат : MPEG Audio
Версия формата : Version 1
Профиль формата : Layer 3
Режим : Joint stereo
Расширение режима : MS Stereo
Идентификатор кодека : 55
Идентификатор кодека/Подсказка : MP3
Продолжительность : 1 ч. 17 м.
Вид битрейта : Постоянный
Битрейт : 192 Кбит/сек
Каналы : 2 канала
Частота : 48,0 КГц
Метод сжатия : С потерями
Размер потока : 107 Мбайт (13%)
Выравнивание : Соединение по промежуткам
Продолжительность промежутка : 40 мс. (1,00 видеокадр)
Время предзагрузки промежутка : 504 мс.
Библиотека кодирования : LAME3.98

Аудио #2
Идентификатор : 2
Формат : MPEG Audio
Версия формата : Version 1
Профиль формата : Layer 3
Режим : Joint stereo
Расширение режима : MS Stereo
Идентификатор кодека : 55
Идентификатор кодека/Подсказка : MP3
Продолжительность : 1 ч. 17 м.
Вид битрейта : Переменный
Битрейт : 128 Кбит/сек
Каналы : 2 канала
Частота : 48,0 КГц
Метод сжатия : С потерями
Размер потока : 72,0 Мбайт (9%)
Выравнивание : Соединение по промежуткам
Продолжительность промежутка : 24 мс. (0,60 видеокадр)
Время предзагрузки промежутка : 359 мс.
Библиотека кодирования : LAME3.90.
Настройки программы : -m j -V 4 -q 2 -lowpass 17.6 --abr 128
Скриншоты
загрузка...
Правила, инструкции, FAQ!!!
Торрент  Добавлен [13 фев 2014, 06:33] Скачать торрент
Скачать торрент
[ Размер 16.42 КБ / Просмотров 4 ]

Статус  
 
Размер  809.59 МБ
Приватный: Нет (DHT включён)
.torrent скачан  0
Как залить торрент? | Как скачать Torrent? | Как смотреть и слушать онлайн?  


     Отправить личное сообщение
   
Страница 1 из 1
Показать сообщения за:  Поле сортировки  
Начать новую тему Ответить на тему

   Похожие торренты   Автор   Ответы   Просмотры   Последнее сообщение 
В этой теме нет новых непрочитанных сообщений. Скачать торрент Проверен Невероятные приключения итальянцев в России (Эльдар Рязанов) [1973, СССР, Италия, комедия, приключения, DVDRip SD (480p)] Original

в форуме Фильмы для iPod, iPhone, iPad, Размер: 1.77 ГБ, Здоровье: 100%

Гость

0
17|5

87
0

18 май 2015, 10:39

Гость Перейти к последнему сообщению

В этой теме нет новых непрочитанных сообщений. Скачать торрент Проверен [iPad] Коля / Kolya (Ян Сверак/ Jan Sverák) [1996, Чехия, Комедия, драма, музыка, HDRip, 576p] AVO (Кузнецов) + Original + rus sub

в форуме Фильмы для iPod, iPhone, iPad, Размер: 1.81 ГБ, Здоровье: 100%

Anonymous

0
5|2

36
0

14 май 2015, 00:23

Anonymous Перейти к последнему сообщению

В этой теме нет новых непрочитанных сообщений. Скачать торрент Проверен [iPad] Хоть раз в жизни / Begin again (Джон Карни / John Carney ) [2013, США, Драма, мелодрама, комедия, музыка, HDRip, SD (576p)] DUB + Original + sub (eng)

в форуме Фильмы для iPod, iPhone, iPad, Размер: 1.81 ГБ, Здоровье: 0%

Гость

0
0|0

74
1

11 май 2015, 01:36

Гость Перейти к последнему сообщению

В этой теме нет новых непрочитанных сообщений. Скачать торрент Проверен Klotchkov Claudio / Клочков Клаудио - El Ruso Fácil / Русский по-простому [2009, PDF, ESP]

в форуме Русский язык как иностранный, Размер: 20.36 МБ, Здоровье: 100%

Anonymous

0
1|0

1
0

04 мар 2017, 09:02

Anonymous Перейти к последнему сообщению

В этой теме нет новых непрочитанных сообщений. Скачать торрент Проверен Bibliotheca Italica - Magris Claudio / Магрис Клаудио - Вслепую [2011, DjVu/FB2, RUS]

в форуме Зарубежная литература (XX и XXI век), Размер: 8.01 МБ, Здоровье: 100%

Anonymous

0
5|1

3
0

08 сен 2016, 19:38

Anonymous Перейти к последнему сообщению



Сейчас этот форум просматривают: нет зарегистрированных пользователей и гости: 1


Вы не можете начинать темы
Вы не можете отвечать на сообщения
Вы не можете редактировать свои сообщения
Вы не можете удалять свои сообщения
Вы не можете добавлять вложения

Перейти:  

!ВНИМАНИЕ!
 Ресурс не предоставляет электронные версии произведений, а занимается лишь коллекционированием и каталогизацией ссылок, присылаемых и публикуемых на форуме нашими читателями. Если вы являетесь правообладателем какого-либо представленного материала и не желаете чтобы ссылка на него находилась в нашем каталоге, свяжитесь с нами и мы незамедлительно удалим её. Файлы для обмена на трекере предоставлены пользователями сайта, и администрация не несёт ответственности за их содержание. Просьба не заливать файлы, защищенные авторскими правами, а также файлы нелегального содержания!