На всех торрентах на трекере установлена скидка на скачивание в размере 100 процентов(а).
 Возможность скачивания торрента НЕ зависит от ограничений при низком ратио, низком аплоаде, требуемом ратио или требуемом аплоаде.


Начать новую тему Ответить на тему
Статистика раздачи
Размер: 5.47 ГБ | Добавлен: 18 янв 2014, 18:42 | Скачали: 1
Сидеров: 2  [0 байт/сек]    Личеров: 20  [0 байт/сек]
Пред. тема | След. тема 

Автор
Сообщение

СообщениеДобавлено: 18 янв 2014, 18:42 

Ответить с цитатой 

Muse - Live At Rome Olympic Stadium

Год выпуска: 2013
Жанр: Alternative Rock
Продолжительность: 01:35:46

Качество: BDRip 720p
Контейнер: MKV
Видео кодек: MPEG-4 AVC
Аудио кодек: AC3
Видео: 1280x720 / 16:9 / 23.976 fps / ~7.532 Kbps
Аудио: AC3 5.1 / 48 kHz / 640 kbps / 16 bits

Обложка + фото релиза
Editorial Reviews
Deluxe CD/Blu-Ray edition. On July 6th, multi-platinum-selling British band Muse took to the stage at Rome's Olympic Stadium in front of a capacity audience of more than 60,000 euphoric fans. This package showcases the most extravagant set built and spectacular stage show of any Muse tour to date. The band take the audience on a mesmerizing journey using pyrotechnics, expansive digital screens, and a troop of actors to accompany their epic playlist of 20 tracks, mixed in incredible surround sound, including hits from their most recent studio album The 2nd Law, as well as classics such as "Uprising," "Madness," "Supermassive Black Hole," "Starlight," "Time Is Running Out," and "Knights of Cydonia."
Трэклист
01. Intro
02. Supremacy
03. Panic Station
04. Plug In Baby
05. Resistance
06. Animals
07. Knights of Cydonia
08. Explorers
09. Hysteria
10. Feeling Good
11. Follow Me
12. Madness
13. Time is Running Out
14. Guiding Light
15. Undisclosed Desires
16. Supermassive Black Hole
17. Survival
18. The 2nd Law: Isolated System
19. Uprising
20. Starlight
Mediainfo
Код:
Код:
General
Unique ID                      : 210687976813235769460414623905578098684 (0x9E810741BAAA749699108C0AE8AE1FFC)
Complete name                  : F:\Muse.Live.At.Rome.Olympic.Stadium.2013.720p.MBluRay.x264-LiQUiD.mkv
Format                         : Matroska
Format version                 : Version 4 / Version 2
File size                      : 5.47 GiB
Duration                       : 1h 35mn
Overall bit rate               : 8 174 Kbps
Encoded date                   : UTC 2013-11-29 17:53:19
Writing application            : mkvmerge v6.5.0 ('Isn't she lovely') built on Oct 20 2013 12:50:05
Writing library                : libebml v1.3.0 + libmatroska v1.4.1

Video
ID                             : 1
Format                         : AVC
Format/Info                    : Advanced Video Codec
Format profile                 : High@L4.1
Format settings, CABAC         : Yes
Format settings, ReFrames      : 5 frames
Codec ID                       : V_MPEG4/ISO/AVC
Duration                       : 1h 35mn
Bit rate                       : 7 532 Kbps
Width                          : 1 280 pixels
Height                         : 720 pixels
Display aspect ratio           : 16:9
Frame rate mode                : Constant
Frame rate                     : 23.976 fps
Color space                    : YUV
Chroma subsampling             : 4:2:0
Bit depth                      : 8 bits
Scan type                      : Progressive
Bits/(Pixel*Frame)             : 0.341
Stream size                    : 4.93 GiB (90%)
Writing library                : x264 core 138 r2358 9e941d1
Encoding settings              : cabac=1 / ref=5 / deblock=1:0:0 / analyse=0x3:0x133 / me=umh / subme=8 / psy=1 / psy_rd=1.00:0.00 / mixed_ref=1 / me_range=16 / chroma_me=1 / trellis=1 / 8x8dct=1 / cqm=0 / deadzone=21,11 / fast_pskip=0 / chroma_qp_offset=-2 / threads=12 / lookahead_threads=2 / sliced_threads=0 / nr=0 / decimate=1 / interlaced=0 / bluray_compat=0 / constrained_intra=0 / bframes=3 / b_pyramid=2 / b_adapt=1 / b_bias=0 / direct=1 / weightb=1 / open_gop=0 / weightp=2 / keyint=250 / keyint_min=23 / scenecut=40 / intra_refresh=0 / rc_lookahead=40 / rc=2pass / mbtree=1 / bitrate=7532 / ratetol=1.0 / qcomp=0.60 / qpmin=0 / qpmax=69 / qpstep=4 / cplxblur=20.0 / qblur=0.5 / ip_ratio=1.40 / aq=1:1.00
Language                       : English
Default                        : Yes
Forced                         : No

Audio
ID                             : 2
Format                         : AC-3
Format/Info                    : Audio Coding 3
Mode extension                 : CM (complete main)
Format settings, Endianness    : Big
Codec ID                       : A_AC3
Duration                       : 1h 35mn
Bit rate mode                  : Constant
Bit rate                       : 640 Kbps
Channel(s)                     : 6 channels
Channel positions              : Front: L C R, Side: L R, LFE
Sampling rate                  : 48.0 KHz
Bit depth                      : 16 bits
Compression mode               : Lossy
Stream size                    : 438 MiB (8%)
Default                        : Yes
Forced                         : No

Menu
00:00:00.000                   : en:00:00:00.000
00:01:11.204                   : en:00:01:11.204
00:06:32.792                   : en:00:06:32.792
00:09:50.156                   : en:00:09:50.156
00:14:17.957                   : en:00:14:17.957
00:19:53.759                   : en:00:19:53.759
00:24:27.633                   : en:00:24:27.633
00:33:26.238                   : en:00:33:26.238
00:39:20.758                   : en:00:39:20.758
00:44:41.913                   : en:00:44:41.913
00:48:26.103                   : en:00:48:26.103
00:52:29.013                   : en:00:52:29.013
00:57:17.534                   : en:00:57:17.534
01:01:58.281                   : en:01:01:58.281
01:06:24.280                   : en:01:06:24.280
01:10:34.497                   : en:01:10:34.497
01:14:49.785                   : en:01:14:49.785
01:19:39.642                   : en:01:19:39.642
01:22:06.522                   : en:01:22:06.522
01:27:50.031                   : en:01:27:50.031
01:33:01.042                   : en:01:33:01.042

Скриншоты
Правила, инструкции, FAQ!!!
Торрент  Добавлен [18 янв 2014, 18:42] Скачать торрент Магнет ссылка
Скачать торрент
[ Размер 27.86 КБ / Просмотров 40 ]

Статус  
 
Размер  5.47 ГБ
Приватный: Нет (DHT включён)
.torrent скачан  1
Как залить торрент? | Как скачать Torrent? | Ошибка в торренте? Качайте магнет  
загрузка...


     Отправить личное сообщение
   
Страница 1 из 1
Показать сообщения за:  Поле сортировки  
Начать новую тему Ответить на тему

   Похожие торренты   Автор   Ответы   Просмотры   Последнее сообщение 
В этой теме нет новых непрочитанных сообщений. Скачать торрент Проверен Muse - Live At Rome Olympic Stadium [2013, Alternative Rock, BDRip 720p]

в форуме Концерты (HD-Video), Размер: 5.58 ГБ, Здоровье: 100%

Гость

0
70|22

113
4

29 апр 2015, 19:30

Гость Перейти к последнему сообщению

В этой теме нет новых непрочитанных сообщений. Скачать торрент Проверен Muse - Live At Rome Olympic Stadium [2013, Alternative Rock, BDRip 1080p]

в форуме Концерты (HD-Video), Размер: 6.56 ГБ, Здоровье: 100%

Гость

0
257|38

176
15

03 май 2015, 22:09

Гость Перейти к последнему сообщению

В этой теме нет новых непрочитанных сообщений. Скачать торрент Muse - Live At Rome Olympic Stadium (2013) [FLAC|Lossless]<Alternative Rock>

в форуме Рок, Панк, Метал, Альтернатива, Размер: 457.34 МБ, Здоровье: 2%

Anonymous

0
2|96

70
2

16 мар 2014, 00:38

Anonymous Перейти к последнему сообщению

В этой теме нет новых непрочитанных сообщений. Скачать торрент Проверен (Alternative Rock) [WEB] Muse - Live at Rome Olympic Stadium - 2013, FLAC (tracks), lossless

в форуме Alternative & Nu-metal, Размер: 459.33 МБ, Здоровье: 100%

Anonymous

0
2|0

12
1

25 фев 2017, 10:30

Anonymous Перейти к последнему сообщению

В этой теме нет новых непрочитанных сообщений. Скачать торрент Проверен [TR24][OF] Muse - Live At Rome Olympic Stadium (Studio Masters Edition) (Live album) - 2013 (Alternative Rock)

в форуме Hi-Res stereo (рок), Размер: 1.38 ГБ, Здоровье: 100%

Anonymous

0
18|5

54
3

24 авг 2016, 10:30

Anonymous Перейти к последнему сообщению



Сейчас этот форум просматривают: нет зарегистрированных пользователей и гости: 0


Вы не можете начинать темы
Вы не можете отвечать на сообщения
Вы не можете редактировать свои сообщения
Вы не можете удалять свои сообщения
Вы не можете добавлять вложения

Перейти:  
Ресурс не предоставляет электронные версии произведений, а занимается лишь коллекционированием и каталогизацией ссылок, присылаемых и публикуемых на форуме нашими читателями. Если вы являетесь правообладателем какого-либо представленного материала и не желаете чтобы ссылка на него находилась в нашем каталоге, свяжитесь с нами и мы незамедлительно удалим её. Файлы для обмена на трекере предоставлены пользователями сайта, и администрация не несёт ответственности за их содержание. Просьба не заливать файлы, защищенные авторскими правами, а также файлы нелегального содержания!
cron
cron