На всех торрентах на трекере установлена скидка на скачивание в размере 100 процентов(а).
 Возможность скачивания торрента НЕ зависит от ограничений при низком ратио, низком аплоаде, требуемом ратио или требуемом аплоаде.


Начать новую тему Ответить на тему
Статистика раздачи
Размер: 548.34 МБ | Добавлен: 10 мар 2018, 16:04 | Скачали: 0
Сидеров: 1  [0 байт/сек]    Личеров: 0  [0 байт/сек]
Пред. тема | След. тема 

Автор
Сообщение

СообщениеДобавлено: 10 мар 2018, 16:04 

Ответить с цитатой 

Motorhead - Tear Ya Down: The Rarities (2002)

Жанр: Heavy Metal
Издание: Sanctuary Record - CMDDD444
Продолжительность: 01:22:13

Кодек: FLAC
Битрейт: Lossless
Тип рипа: image + .cue
Продолжительность: 00:34:35
Треклист:
01. Hump on Your Back
02. Shoot You in the Back
03. Dirty Love
04. Dirty Love (full version)
05. Love Me Like a Reptile
06. Fast and Loose
07. Waltz of the Vampire
08. Ace of Spades (rare version)
09. Bastard
10. Godzilla Akimbo
11. (We Are) The Road Crew
Код:
Exact Audio Copy V1.0 beta 1 from 15. November 2010

EAC extraction logfile from 31. December 2012, 10:07

Motörhead / Tear Ya Down The Rarities

Used drive  : PLEXTOR DVDR   PX-891SA   Adapter: 3  ID: 1

Read mode               : Secure
Utilize accurate stream : Yes
Defeat audio cache      : Yes
Make use of C2 pointers : No

Read offset correction                      : 6
Overread into Lead-In and Lead-Out          : No
Fill up missing offset samples with silence : Yes
Delete leading and trailing silent blocks   : No
Null samples used in CRC calculations       : Yes
Used interface                              : Native Win32 interface for Win NT & 2000

Used output format              : User Defined Encoder
Selected bitrate                : 768 kBit/s
Quality                         : High
Add ID3 tag                     : No
Command line compressor         : C:\Program Files (x86)\Exact Audio Copy\FLAC\FLAC.EXE
Additional command line options : -6 -V %s

TOC of the extracted CD

     Track |   Start  |  Length  | Start sector | End sector
    ---------------------------------------------------------
        1  |  0:00.00 |  3:42.71 |         0    |    16720
        2  |  3:42.71 |  3:09.44 |     16721    |    30939
        3  |  6:52.40 |  1:02.18 |     30940    |    35607
        4  |  7:54.58 |  3:51.39 |     35608    |    52971
        5  | 11:46.22 |  4:15.28 |     52972    |    72124
        6  | 16:01.50 |  3:04.57 |     72125    |    85981
        7  | 19:06.32 |  3:38.51 |     85982    |   102382
        8  | 22:45.08 |  3:02.05 |    102383    |   116037
        9  | 25:47.13 |  3:04.27 |    116038    |   129864
       10  | 28:51.40 |  2:20.38 |    129865    |   140402
       11  | 31:12.03 |  3:22.74 |    140403    |   155626

Range status and errors

Selected range

     Filename D:\MeTaLMaDNeSS.TeaM\Motorhead (UK) - Tear Ya Down The Rarities (2CD)\CD1-Motorhead - Tear Ya Down The Rarities.wav

     Peak level 97.9 %
     Extraction speed 0.7 X
     Range quality 100.0 %
     Test CRC 89E57112
     Copy CRC 89E57112
     Copy OK

No errors occurred

AccurateRip summary

Track  1  accurately ripped (confidence 6)  [13FA1004]
Track  2  accurately ripped (confidence 6)  [AB40F3B8]
Track  3  accurately ripped (confidence 6)  [9A4DB406]
Track  4  accurately ripped (confidence 6)  [CF404C6C]
Track  5  accurately ripped (confidence 6)  [519D69D6]
Track  6  accurately ripped (confidence 6)  [B12DFA96]
Track  7  accurately ripped (confidence 6)  [401E8882]
Track  8  accurately ripped (confidence 6)  [F3F0E2DE]
Track  9  accurately ripped (confidence 6)  [EAA469EB]
Track 10  accurately ripped (confidence 6)  [6CB4E10C]
Track 11  accurately ripped (confidence 6)  [56AB46E0]

All tracks accurately ripped

End of status report
Код:
REM GENRE "Hard Rock"
REM DATE 2002
REM DISCID 99081B0B
REM COMMENT "ExactAudioCopy v1.0b1"
PERFORMER "Motцrhead"
TITLE "Tear Ya Down The Rarities"
FILE "CD1-Motorhead - Tear Ya Down The Rarities.flac" WAVE
  TRACK 01 AUDIO
    TITLE "Hump On Your Back"
    PERFORMER "Motцrhead"
    INDEX 01 00:00:00
  TRACK 02 AUDIO
    TITLE "Shoot You In The Back"
    PERFORMER "Motцrhead"
    INDEX 01 03:42:71
  TRACK 03 AUDIO
    TITLE "Dirty Love"
    PERFORMER "Motцrhead"
    INDEX 01 06:52:40
  TRACK 04 AUDIO
    TITLE "Dirty Love (Full Version)"
    PERFORMER "Motцrhead"
    INDEX 01 07:54:58
  TRACK 05 AUDIO
    TITLE "Love Me Like A Reptile"
    PERFORMER "Motцrhead"
    INDEX 01 11:46:22
  TRACK 06 AUDIO
    TITLE "Fast And Loose"
    PERFORMER "Motцrhead"
    INDEX 01 16:01:50
  TRACK 07 AUDIO
    TITLE "Waltz Of The Vampire"
    PERFORMER "Motцrhead"
    INDEX 01 19:06:32
  TRACK 08 AUDIO
    TITLE "Ace Of Spades (Rare Version)"
    PERFORMER "Motцrhead"
    INDEX 01 22:45:08
  TRACK 09 AUDIO
    TITLE "Bastard"
    PERFORMER "Motцrhead"
    INDEX 01 25:47:13
  TRACK 10 AUDIO
    TITLE "Godzilla Akimbo"
    PERFORMER "Motцrhead"
    INDEX 01 28:51:40
  TRACK 11 AUDIO
    TITLE "(We  Are) The Road Crew"
    PERFORMER "Motцrhead"
    INDEX 01 31:12:03
Продолжительность: 00:47:38
Треклист:
01. Like a Nightmare
02. Treat Me Nice
03. Stone Dead Forever
04. Sharpshooter
05. You Ain't Gonna Live Forever
06. The Hammer
07. Bomber
08. Love Me Like a Reptile
09. Fun on the Farm
10. Tear Ya Down
11. Fire, Fire
12. Louie Louie (Richard Berry cover)
13. Jailbait
14. Step Down
Код:
Exact Audio Copy V1.0 beta 1 from 15. November 2010

EAC extraction logfile from 31. December 2012, 10:21

Motorhead / Tear Ya Down The raritirs

Used drive  : PLEXTOR DVDR   PX-891SA   Adapter: 3  ID: 1

Read mode               : Secure
Utilize accurate stream : Yes
Defeat audio cache      : Yes
Make use of C2 pointers : No

Read offset correction                      : 6
Overread into Lead-In and Lead-Out          : No
Fill up missing offset samples with silence : Yes
Delete leading and trailing silent blocks   : No
Null samples used in CRC calculations       : Yes
Used interface                              : Native Win32 interface for Win NT & 2000

Used output format              : User Defined Encoder
Selected bitrate                : 768 kBit/s
Quality                         : High
Add ID3 tag                     : No
Command line compressor         : C:\Program Files (x86)\Exact Audio Copy\FLAC\FLAC.EXE
Additional command line options : -6 -V %s

TOC of the extracted CD

     Track |   Start  |  Length  | Start sector | End sector
    ---------------------------------------------------------
        1  |  0:00.00 |  4:13.30 |         0    |    19004
        2  |  4:13.30 |  3:52.68 |     19005    |    36472
        3  |  8:06.23 |  4:35.09 |     36473    |    57106
        4  | 12:41.32 |  3:17.57 |     57107    |    71938
        5  | 15:59.14 |  3:11.45 |     71939    |    86308
        6  | 19:10.59 |  3:12.06 |     86309    |   100714
        7  | 22:22.65 |  3:36.07 |    100715    |   116921
        8  | 25:58.72 |  3:31.59 |    116922    |   132805
        9  | 29:30.56 |  2:59.66 |    132806    |   146296
       10  | 32:30.47 |  2:40.57 |    146297    |   158353
       11  | 35:11.29 |  2:41.06 |    158354    |   170434
       12  | 37:52.35 |  2:45.12 |    170435    |   182821
       13  | 40:37.47 |  3:33.16 |    182822    |   198812
       14  | 44:10.63 |  3:27.61 |    198813    |   214398

Range status and errors

Selected range

     Filename D:\MeTaLMaDNeSS.TeaM\Motorhead (UK) - Tear Ya Down The Rarities (2CD)\CD2-Motorhead - Tear Ya Down The raritirs.wav

     Peak level 97.9 %
     Extraction speed 0.6 X
     Range quality 100.0 %
     Test CRC F6C9E33A
     Copy CRC F6C9E33A
     Copy OK

No errors occurred

AccurateRip summary

Track  1  accurately ripped (confidence 6)  [D8DA736D]
Track  2  accurately ripped (confidence 6)  [D7516CE2]
Track  3  accurately ripped (confidence 6)  [947B425F]
Track  4  accurately ripped (confidence 6)  [1B498F00]
Track  5  accurately ripped (confidence 6)  [1997A131]
Track  6  accurately ripped (confidence 6)  [306E456B]
Track  7  accurately ripped (confidence 6)  [4AD48617]
Track  8  accurately ripped (confidence 6)  [E382561C]
Track  9  accurately ripped (confidence 6)  [F239A830]
Track 10  accurately ripped (confidence 6)  [8B068407]
Track 11  accurately ripped (confidence 6)  [D5D08C42]
Track 12  accurately ripped (confidence 6)  [95761DC3]
Track 13  accurately ripped (confidence 6)  [7286E6F9]
Track 14  accurately ripped (confidence 6)  [DC40B781]

All tracks accurately ripped

End of status report

Код:
REM GENRE "Hard Rock"
REM DATE 2002
REM DISCID BC0B2A0E
REM COMMENT "ExactAudioCopy v1.0b1"
PERFORMER "Motorhead"
TITLE "Tear Ya Down The Rarities"
FILE "CD2-Motorhead - Tear Ya Down The Rarities.flac" WAVE
  TRACK 01 AUDIO
    TITLE "Nightmare"
    PERFORMER "Motorhead"
    INDEX 01 00:00:00
  TRACK 02 AUDIO
    TITLE "Treat Me Nice"
    PERFORMER "Motorhead"
    INDEX 01 04:13:30
  TRACK 03 AUDIO
    TITLE "Stone Dead Forever"
    PERFORMER "Motorhead"
    INDEX 01 08:06:23
  TRACK 04 AUDIO
    TITLE "Sharpshooter"
    PERFORMER "Motorhead"
    INDEX 01 12:41:32
  TRACK 05 AUDIO
    TITLE "You Ain't Gonna Live Forever"
    PERFORMER "Motorhead"
    INDEX 01 15:59:14
  TRACK 06 AUDIO
    TITLE "The Hammer"
    PERFORMER "Motorhead"
    INDEX 01 19:10:59
  TRACK 07 AUDIO
    TITLE "Bomber"
    PERFORMER "Motorhead"
    INDEX 01 22:22:65
  TRACK 08 AUDIO
    TITLE "Love Me LIke A Reptile"
    PERFORMER "Motorhead"
    INDEX 01 25:58:72
  TRACK 09 AUDIO
    TITLE "Fun On The Farm"
    PERFORMER "Motorhead"
    INDEX 01 29:30:56
  TRACK 10 AUDIO
    TITLE "Tear Ya Down"
    PERFORMER "Motorhead"
    INDEX 01 32:30:47
  TRACK 11 AUDIO
    TITLE "Fire Fire"
    PERFORMER "Motorhead"
    INDEX 01 35:11:29
  TRACK 12 AUDIO
    TITLE "Louie Louie"
    PERFORMER "Motorhead"
    INDEX 01 37:52:35
  TRACK 13 AUDIO
    TITLE "Jailbait"
    PERFORMER "Motorhead"
    INDEX 01 40:37:47
  TRACK 14 AUDIO
    TITLE "Step Down"
    PERFORMER "Motorhead"
    INDEX 01 44:10:63

Код:
AUDIOCHECKER v2.0 beta (build 457) - by Dester - [url=http://nnm-club.me/mailto:opdester@freemail.hu]opdester@freemail.hu[/url]
~~~~~~~~~~~~~~~~~~~~~~~~~~~~~~~~~~
-=== DO NOT EDIT THIS FILE! ===-

Path: ...\Motorhead (UK) - Tear Ya Down The Rarities (2CD)

1 -=- CD1-Motorhead - Tear Ya Down The Rarities.flac -=- CDDA (100%)
2 -=- CD2-Motorhead - Tear Ya Down The Rarities.flac -=- CDDA (100%)

Summary 100,00% CDDA

24123764
Время раздачи: 19.45 - 23.30 (до появления первых 3-5 скачавших)
загрузка...
Правила, инструкции, FAQ!!!
Торрент  Добавлен [10 мар 2018, 16:04] Скачать торрент Магнет ссылка
Скачать торрент
[ Размер 23.7 КБ / Просмотров 81 ]

Статус
Проверен 
 
Размер  548.34 МБ
Приватный: Нет (DHT включён)
.torrent скачан  0
Как залить торрент? | Как скачать Torrent? | Ошибка в торренте? Качайте магнет  


     Отправить личное сообщение
   
Страница 1 из 1
Показать сообщения за:  Поле сортировки  
Начать новую тему Ответить на тему

   Похожие торренты   Автор   Ответы   Просмотры   Последнее сообщение 
В этой теме нет новых непрочитанных сообщений. Скачать торрент Проверен (Heavy Metal) Motorhead - Motoryears: The Best Of Motorhead 1977-1987 - 1997, FLAC (image+.cue), lossless

в форуме Heavy, Power, Progressive (Metal), Размер: 513.79 МБ, Здоровье: 100%

Anonymous

0
13|9

121
3

11 окт 2016, 22:49

Anonymous Перейти к последнему сообщению

В этой теме нет новых непрочитанных сообщений. Скачать торрент Проверен (Heavy Metal) Motorhead - Hammered (Japan VICP-61874) - 2002, FLAC (image+.cue), lossless

в форуме Heavy, Power, Progressive (Metal), Размер: 410.82 МБ, Здоровье: 100%

Anonymous

0
3|0

18
0

10 окт 2016, 23:35

Anonymous Перейти к последнему сообщению

В этой теме нет новых непрочитанных сообщений. Скачать торрент Проверен (Hard Rock,Thrash,Heavy Metal) Motorhead - The Very Best Of... - 2002, APE (image+.cue), lossless

в форуме Heavy, Power, Progressive (Metal), Размер: 345.05 МБ, Здоровье: 100%

Anonymous

0
5|1

20
0

11 окт 2016, 22:49

Anonymous Перейти к последнему сообщению

В этой теме нет новых непрочитанных сообщений. Скачать торрент Motorhead - The Very Best Of... (2002) [APE|Lossless]<Hard Rock, Heavy Metal>

в форуме Рок, Панк, Метал, Альтернатива, Размер: 345.05 МБ, Здоровье: 100%

Anonymous

0
485|30

157
2

25 авг 2013, 19:45

Anonymous Перейти к последнему сообщению

В этой теме нет новых непрочитанных сообщений. Скачать торрент Проверен (Heavy Metal, Hard Rock) Motorhead - What's Wordsworth? (recorded live 1978) - 1983 (2002), FLAC (tracks+.cue), lossless

в форуме Heavy, Power, Progressive (Metal), Размер: 253.47 МБ, Здоровье: 100%

Anonymous

0
2|1

22
0

11 окт 2016, 00:17

Anonymous Перейти к последнему сообщению



Сейчас этот форум просматривают: нет зарегистрированных пользователей и гости: 0


Вы не можете начинать темы
Вы не можете отвечать на сообщения
Вы не можете редактировать свои сообщения
Вы не можете удалять свои сообщения
Вы не можете добавлять вложения

Перейти:  
Ресурс не предоставляет электронные версии произведений, а занимается лишь коллекционированием и каталогизацией ссылок, присылаемых и публикуемых на форуме нашими читателями. Если вы являетесь правообладателем какого-либо представленного материала и не желаете чтобы ссылка на него находилась в нашем каталоге, свяжитесь с нами и мы незамедлительно удалим её. Файлы для обмена на трекере предоставлены пользователями сайта, и администрация не несёт ответственности за их содержание. Просьба не заливать файлы, защищенные авторскими правами, а также файлы нелегального содержания!
cron