На всех торрентах на трекере установлена скидка на скачивание в размере 100 процентов(а).
 Возможность скачивания торрента НЕ зависит от ограничений при низком ратио, низком аплоаде, требуемом ратио или требуемом аплоаде.


Начать новую тему Ответить на тему
Статистика раздачи
Размер: 9.4 ГБ | Добавлен: 23 окт 2016, 19:49 | Скачали: 1
Сидеров: 5  [0 байт/сек]    Личеров: 5  [0 байт/сек]
Пред. тема | След. тема 

Автор
Сообщение

СообщениеДобавлено: 23 окт 2016, 19:49 

Ответить с цитатой 

Motley Crue - Carnival of Sins
Год выпуска: 2005
Жанр: Glam Metal, Heavy Metal
Продолжительность: 02:17:05
Описание: Концерт в Van Andel Arena, Grand Rapids, Michigan в апреле 2005 в рамках мирового тура "Red, White and Crue Tour".
Снято с использованием 20 HD камер, режиссер Хэмиш Хамильтон.

Треклист:

1. Opening
2. Shout At The Devil
3. Too Fast For Love
4. Ten Seconds To Love
5. Red Hot
6. On With The Show
7. Too Young To Fall In Love
8. Looks That Kill
9. Louder Than Hell
10. Live Wire
11. Girls Girls Girls
12. Wild Side
13. Don't Go Away Mad (Just Go Away)
14. Primal Scream
15. Glitter
16. Without You
17. Home Sweet Home
18. Nikkie's Solo
19. Dr. Feelgood
20. Tommy's Solo
21. Same Ol' Situation
22. Tommy Cam
23. Sick Love Song
24. If I Die Tomorrow
25. Kickstart My Heart
26. Helter Skelter
27. Anarchy In the UK


Качество: BDRip 720p
Формат: MKV
Видео кодек:: MPEG-4 AVC
Аудио кодек:: AC3
Видео: MPEG-4 AVC Video / 8793 kbps / 1276x720 / 29,970 fps / 16:9 /
Аудио #1: Dolby Digital Audio / 5.1 / 48 kHz / 640 kbps
Аудио #2: Dolby Digital Audio / 2.0 / 48 kHz / 192 kbps
x264 [info]: frame I:21 Avg QP:19.25 size: 87573
x264 [info]: frame P:683 Avg QP:21.20 size: 56660
x264 [info]: frame B:1827 Avg QP:22.79 size: 27440
x264 [info]: consecutive B-frames: 3.8% 7.9% 10.7% 43.5% 9.7% 15.2% 3.3% 3.2% 2.8%Код:
Код:
General
Unique ID                   : 181442246350827802541080441894576021557 (0x8880816B39F3178FA19CE4A011D76035)
Complete name               : \Motley.Crue.Carnival.of.Sins.BDRip.720p.AC3.mkv
Format                      : Matroska
Format version              : Version 4 / Version 2
File size                   : 9.40 GiB
Duration                    : 2h 17mn
Overall bit rate            : 9 821 Kbps
Encoded date                : UTC 2015-05-15 12:51:41
Writing application         : mkvmerge v7.9.0 ('Birds') 64bit
Writing library             : libebml v1.3.1 + libmatroska v1.4.2
_STATISTICS_WRITING_APP     : mkvmerge v7.9.0 ('Birds') 64bit
_STATISTICS_WRITING_DATE_UT : 2015-05-15 12:51:41
_STATISTICS_TAGS            : BPS DURATION NUMBER_OF_FRAMES NUMBER_OF_BYTES
DURATION                    : 02:17:05.920000000
NUMBER_OF_FRAMES            : 257060
NUMBER_OF_BYTES             : 197422080

Video
ID                          : 1
Format                      : AVC
Format/Info                 : Advanced Video Codec
Format profile              : High@L4.1
Format settings, CABAC      : Yes
Format settings, ReFrames   : 9 frames
Codec ID                    : V_MPEG4/ISO/AVC
Duration                    : 2h 17mn
Bit rate                    : 8 793 Kbps
Width                       : 1 276 pixels
Height                      : 720 pixels
Display aspect ratio        : 16:9
Frame rate mode             : Constant
Frame rate                  : 29.970 fps
Color space                 : YUV
Chroma subsampling          : 4:2:0
Bit depth                   : 8 bits
Scan type                   : Progressive
Bits/(Pixel*Frame)          : 0.319
Stream size                 : 8.42 GiB (90%)
Writing library             : x264 core 146 r2538 121396c
Encoding settings           : cabac=1 / ref=9 / deblock=1:-3:-3 / analyse=0x3:0x113 / me=umh / subme=9 / psy=1 / psy_rd=1.00:0.05 / mixed_ref=1 / me_range=24 / chroma_me=1 / trellis=2 / 8x8dct=1 / cqm=0 / deadzone=21,11 / fast_pskip=0 / chroma_qp_offset=-3 / threads=12 / lookahead_threads=2 / sliced_threads=0 / nr=0 / decimate=1 / interlaced=0 / bluray_compat=0 / constrained_intra=0 / bframes=8 / b_pyramid=2 / b_adapt=2 / b_bias=0 / direct=3 / weightb=1 / open_gop=0 / weightp=2 / keyint=250 / keyint_min=25 / scenecut=40 / intra_refresh=0 / rc=crf / mbtree=0 / crf=21.0 / qcomp=0.60 / qpmin=0 / qpmax=69 / qpstep=4 / ip_ratio=1.40 / pb_ratio=1.30 / aq=3:1.10
Language                    : English
Default                     : Yes
Forced                      : No
Color range                 : Limited
Color primaries             : BT.709
Transfer characteristics    : BT.709
Matrix coefficients         : BT.709
_STATISTICS_WRITING_APP     : mkvmerge v7.9.0 ('Birds') 64bit
_STATISTICS_WRITING_DATE_UT : 2015-05-15 12:51:41
_STATISTICS_TAGS            : BPS DURATION NUMBER_OF_FRAMES NUMBER_OF_BYTES
DURATION                    : 02:17:05.917000000
NUMBER_OF_FRAMES            : 246531
NUMBER_OF_BYTES             : 9239889622

Audio #1
ID                          : 2
Format                      : AC-3
Format/Info                 : Audio Coding 3
Mode extension              : CM (complete main)
Format settings, Endianness : Big
Codec ID                    : A_AC3
Duration                    : 2h 17mn
Bit rate mode               : Constant
Bit rate                    : 640 Kbps
Channel(s)                  : 6 channels
Channel positions           : Front: L C R, Side: L R, LFE
Sampling rate               : 48.0 KHz
Compression mode            : Lossy
Stream size                 : 628 MiB (7%)
Title                       : AC3 / 5.1 / 48 kHz / 640 kbps
Language                    : English
Default                     : Yes
Forced                      : No

Audio #2
ID                          : 3
Format                      : AC-3
Format/Info                 : Audio Coding 3
Mode extension              : CM (complete main)
Format settings, Endianness : Big
Codec ID                    : A_AC3
Duration                    : 2h 17mn
Bit rate mode               : Constant
Bit rate                    : 192 Kbps
Channel(s)                  : 2 channels
Channel positions           : Front: L R
Sampling rate               : 48.0 KHz
Compression mode            : Lossy
Stream size                 : 188 MiB (2%)
Title                       : AC3 / 2.0 / 48 kHz / 192 kbps
Language                    : English
Default                     : No
Forced                      : No

Menu
00:00:00.000                : en:Opening
00:04:03.810                : en:Shout At The Devil
00:07:54.140                : en:Too Fast For Love
00:12:53.606                : en:Ten Seconds To Love
00:20:23.255                : en:Red Hot
00:24:22.861                : en:On With The Show
00:29:06.945                : en:Too Young To Fall In Love
00:33:00.478                : en:Looks That Kill
00:37:26.544                : en:Louder Than Hell
00:40:04.369                : en:Live Wire
00:48:07.218                : en:Girls Girls Girls
00:52:48.032                : en:Wild Side
00:59:13.917                : en:Don't Go Away Mad (Just Go Away)
01:04:21.591                : en:Primal Scream
01:09:38.174                : en:Glitter
01:12:15.998                : en:Without You
01:13:55.364                : en:Home Sweet Home
01:20:09.271                : en:Nikkie's Solo
01:22:31.246                : en:Dr. Feelgood
01:28:09.584                : en:Tommy's Solo
01:38:20.928                : en:Same Ol' Situation
01:43:18.926                : en:Tommy Cam
01:50:09.503                : en:Sick Love Song
01:54:54.755                : en:If I Die Tomorrow
01:58:43.316                : en:Kickstart My Heart
02:07:22.235                : en:Helter Skelter
02:10:45.604                : en:Anarchy In the UK

загрузка...
Правила, инструкции, FAQ!!!
Торрент  Добавлен [23 окт 2016, 19:49] Скачать торрент Магнет ссылка
Скачать торрент
[ Размер 23.98 КБ / Просмотров 13 ]

Статус
Проверен 
 
Размер  9.4 ГБ
Приватный: Нет (DHT включён)
.torrent скачан  1
Как залить торрент? | Как скачать Torrent? | Как смотреть и слушать онлайн?  


     Отправить личное сообщение
   
Страница 1 из 1
Показать сообщения за:  Поле сортировки  
Начать новую тему Ответить на тему

   Похожие торренты   Автор   Ответы   Просмотры   Последнее сообщение 
В этой теме нет новых непрочитанных сообщений. Скачать торрент Проверен Motley Crue - Carnival of Sins [2005 г., Glam Metal, Heavy Metal, Blu-Ray]

в форуме Концерты (HD-Video), Размер: 46.42 ГБ, Здоровье: 100%

Anonymous

0
13|3

64
1

29 апр 2015, 19:16

Anonymous Перейти к последнему сообщению

В этой теме нет новых непрочитанных сообщений. Скачать торрент Проверен Motley Crue "Carnival of Sins" [2005 г., Glam Metal, Heavy Metal, BDRip]

в форуме Концерты (HD-Video), Размер: 8.01 ГБ, Здоровье: 46%

Anonymous

0
7|15

92
3

03 май 2015, 22:10

Anonymous Перейти к последнему сообщению

В этой теме нет новых непрочитанных сообщений. Скачать торрент Проверен (Hard Rock, Heavy Metal, Glam Metal) Motley Crue - Greatest Hits - 2009, MP3 (tracks), VBR 230 kbps

в форуме Classic Rock & Hard Rock, Размер: 129.36 МБ, Здоровье: 100%

Anonymous

0
12|4

21
0

14 ноя 2016, 20:09

Anonymous Перейти к последнему сообщению

В этой теме нет новых непрочитанных сообщений. Скачать торрент Проверен (Hard Rock / Glam Metal) Mötley Crüe (Motley Crue) - Red, White & Crüe (Clean Version) [2CD, digipak, 2005] - 2005, WavPack (image+.cue), lossless

в форуме Classic Rock & Hard Rock, Размер: 1.07 ГБ, Здоровье: 100%

Anonymous

0
5|1

16
0

04 сен 2016, 18:45

Anonymous Перейти к последнему сообщению

В этой теме нет новых непрочитанных сообщений. Скачать торрент Проверен (Hard Rock, Heavy Metal, Glam Metal) Motley Crue - Monster Hits/The Very Best Of 1995 - 1995, FLAC (image+.cue), lossless

в форуме Classic Rock & Hard Rock, Размер: 496.64 МБ, Здоровье: 100%

Anonymous

0
7|2

42
0

03 сен 2016, 22:55

Anonymous Перейти к последнему сообщению



Сейчас этот форум просматривают: нет зарегистрированных пользователей и гости: 1


Вы не можете начинать темы
Вы не можете отвечать на сообщения
Вы не можете редактировать свои сообщения
Вы не можете удалять свои сообщения
Вы не можете добавлять вложения

Перейти:  

!ВНИМАНИЕ!
 Ресурс не предоставляет электронные версии произведений, а занимается лишь коллекционированием и каталогизацией ссылок, присылаемых и публикуемых на форуме нашими читателями. Если вы являетесь правообладателем какого-либо представленного материала и не желаете чтобы ссылка на него находилась в нашем каталоге, свяжитесь с нами и мы незамедлительно удалим её. Файлы для обмена на трекере предоставлены пользователями сайта, и администрация не несёт ответственности за их содержание. Просьба не заливать файлы, защищенные авторскими правами, а также файлы нелегального содержания!