На всех торрентах на трекере установлена скидка на скачивание в размере 100 процентов(а).
 Возможность скачивания торрента НЕ зависит от ограничений при низком ратио, низком аплоаде, требуемом ратио или требуемом аплоаде.


Начать новую тему Ответить на тему
Статистика раздачи
Размер: 1.55 ГБ | Добавлен: 21 авг 2013, 10:32 | Скачали: 1
Сидеров: 0  [0 байт/сек]    Личеров: 0  [0 байт/сек]
Пред. тема | След. тема 

Автор
Сообщение

СообщениеДобавлено: 21 авг 2013, 10:32 

Ответить с цитатой 

Название: Морщинки
Оригинальное название: Arrugas
Год выхода: 2011
Жанр: Мультфильм, драма
Режиссер: Игнасио Феррерас

В ролях: Тачо Гонсалес, Альваро Гевара, Мэйбл Ривера

О фильме:
Фильм повествует об истории дружбы между двумя пожилыми людьми — Эмилио и Мигелем, которые являются соседями по палате в доме престарелых. Эмилио поставлен диагноз ранней стадии болезни Альцгеймера. Мигель и его приятели помогают ему избежать страшной участи — не оказаться на зловещем верхнем этаже дома престарелых, также известном как этаж безнадежных случаев. Реализация их дикого плана придает сил и наполняет юмором их ежедневное скучное времяпровождение. И хотя для некоторых из них жизни подходят к концу — это всего лишь начало чего-то нового…


Страна: Испания
Студия: Cromosoma TV produccions , Elephant in the Black Box, Perro Verde Films
Продолжительность: 01:25:29
Перевод: Профессиональный многоголосый


Кодек: MPEG-4 AVC
Качество: HDTVRip (AVC)
Видео: 2150 Кбит/с, 1024x576, 25.000 кадр/с
Звук: Русский (АС3, 6 ch, 448 Кбит/с)

Семпл


Общее
Полное имя : Morwinki.2011.x264.HDTVRip(AVC).MediaClub.mkv
Формат : Matroska
Версия формата : Version 2
Размер файла : 1,55 Гбайт
Продолжительность : 1 ч. 25 м.
Общий поток : 2600 Кбит/сек
Дата кодирования : UTC 2013-08-20 16:37:00
Программа кодирования : mkvmerge v5.4.0 ('Piper') built on Mar 10 2012 13:34:39
Библиотека кодирования : libebml v1.2.3 + libmatroska v1.3.0

Видео
Идентификатор : 1
Формат : AVC
Формат/Информация : Advanced Video Codec
Профиль формата : High@L4.1
Параметр CABAC формата : Да
Параметр ReFrames формата : 9 кадров
Идентификатор кодека : V_MPEG4/ISO/AVC
Продолжительность : 1 ч. 25 м.
Битрейт : 2150 Кбит/сек
Ширина : 1024 пикселя
Высота : 576 пикселей
Соотношение сторон : 16:9
Режим частоты кадров : Постоянный
Частота кадров : 25,000 кадров/сек
Цветовое пространство : YUV
Субдискретизация насыщенности : 4:2:0
Битовая глубина : 8 бит
Тип развёртки : Прогрессивная
Бит/(Пиксели*Кадры) : 0.146
Размер потока : 1,25 Гбайт (81%)
Библиотека кодирования : x264 core 125 r2208 d9d2288
Настройки программы : cabac=1 / ref=9 / deblock=1:-2:-2 / analyse=0x3:0x133 / me=umh / subme=10 / psy=1 / psy_rd=1.00:0.15 / mixed_ref=1 / me_range=32 / chroma_me=1 / trellis=2 / 8x8dct=1 / cqm=0 / deadzone=21,11 / fast_pskip=0 / chroma_qp_offset=-3 / threads=6 / lookahead_threads=1 / sliced_threads=0 / nr=0 / decimate=0 / interlaced=0 / bluray_compat=0 / constrained_intra=0 / bframes=8 / b_pyramid=2 / b_adapt=2 / b_bias=0 / direct=3 / weightb=1 / open_gop=0 / weightp=2 / keyint=250 / keyint_min=25 / scenecut=40 / intra_refresh=0 / rc=2pass / mbtree=0 / bitrate=2150 / ratetol=1.0 / qcomp=0.60 / qpmin=0 / qpmax=69 / qpstep=4 / cplxblur=20.0 / qblur=0.5 / ip_ratio=1.40 / pb_ratio=1.30 / aq=1:0.80
Default : Да
Forced : Нет

Аудио
Идентификатор : 2
Формат : AC-3
Формат/Информация : Audio Coding 3
Расширение режима : CM (complete main)
Параметр Endianness формата : Big
Идентификатор кодека : A_AC3
Продолжительность : 1 ч. 25 м.
Вид битрейта : Постоянный
Битрейт : 448 Кбит/сек
Каналы : 6 каналов
Расположение каналов : Front: L C R, Side: L R, LFE
Частота : 48,0 КГц
Битовая глубина : 16 бит
Метод сжатия : С потерями
Размер потока : 274 Мбайт (17%)
Язык : Russian
Default : Да
Forced : Нет

Европейская киноакадемия, 2012 год
Номинации (1):

Лучший анимационный фильм
Гойя, 2012 год
Победитель (2):

Лучший адаптированный сценарий
Лучший анимационный фильм


Релиз от:
загрузка...
Правила, инструкции, FAQ!!!
Торрент  Добавлен [21 авг 2013, 10:32] Скачать торрент Магнет ссылка
Скачать торрент
[ Размер 16.03 КБ / Просмотров 7 ]

Статус  
 
Размер  1.55 ГБ
Приватный: Нет (DHT включён)
.torrent скачан  1
Как залить торрент? | Как скачать Torrent? | Ошибка в торренте? Качайте магнет  


     Отправить личное сообщение
   
Страница 1 из 1
Показать сообщения за:  Поле сортировки  
Начать новую тему Ответить на тему

   Похожие торренты   Автор   Ответы   Просмотры   Последнее сообщение 
В этой теме нет новых непрочитанных сообщений. Скачать торрент Проверен The Bangles - Dancing with the Stars (2011-10-17) HDTVRip 720p [2011, Rock/Pop, HDTVRip]

в форуме Концерты (HD-Video), Размер: 291.66 МБ, Здоровье: 100%

Anonymous

0
1|0

21
0

23 окт 2016, 13:17

Anonymous Перейти к последнему сообщению

В этой теме нет новых непрочитанных сообщений. Скачать торрент Проверен Blink 182 - Jimmy Kimmel Live 2011.10.03 HDTVRip 720p [2011, Punk - Rock/Alternative - Rock, HDTVRip]

в форуме Концерты (HD-Video), Размер: 498.47 МБ, Здоровье: 100%

Anonymous

0
3|1

48
0

23 окт 2016, 11:56

Anonymous Перейти к последнему сообщению

В этой теме нет новых непрочитанных сообщений. Скачать торрент Проверен МакSим - Полная дискография и видеография (2006-2015) FLAC, MP3, HDTVRip, HDTVRip 720p, HDTVRip 1080p

в форуме Дискографии (Отечественные), Размер: 24.2 ГБ, Здоровье: 100%

Гость

0
584|158

548
26

20 дек 2015, 12:22

Гость Перейти к последнему сообщению

В этой теме нет новых непрочитанных сообщений. Скачать торрент Проверен SUMMER SONIC 2011 - 2011.09.16 (the Gazette, Avril Lavigne, X Japan) [2011, JRock, KRock, Poprock, HDTVRip]

в форуме Концерты (HD-Video), Размер: 3.65 ГБ, Здоровье: 100%

Anonymous

0
2|0

40
0

23 окт 2016, 10:50

Anonymous Перейти к последнему сообщению

В этой теме нет новых непрочитанных сообщений. Скачать торрент Проверен Lisa - LisAni! LIVE 2011 2011.12.04 [2011, Jrock, Jpop, HDTVRip 720p]

в форуме Концерты (HD-Video), Размер: 605.7 МБ, Здоровье: 100%

Anonymous

0
3|0

18
0

23 окт 2016, 11:26

Anonymous Перейти к последнему сообщению



Сейчас этот форум просматривают: нет зарегистрированных пользователей и гости: 0


Вы не можете начинать темы
Вы не можете отвечать на сообщения
Вы не можете редактировать свои сообщения
Вы не можете удалять свои сообщения
Вы не можете добавлять вложения

Перейти:  
Ресурс не предоставляет электронные версии произведений, а занимается лишь коллекционированием и каталогизацией ссылок, присылаемых и публикуемых на форуме нашими читателями. Если вы являетесь правообладателем какого-либо представленного материала и не желаете чтобы ссылка на него находилась в нашем каталоге, свяжитесь с нами и мы незамедлительно удалим её. Файлы для обмена на трекере предоставлены пользователями сайта, и администрация не несёт ответственности за их содержание. Просьба не заливать файлы, защищенные авторскими правами, а также файлы нелегального содержания!
cron