На всех торрентах на трекере установлена скидка на скачивание в размере 100 процентов(а).
 Возможность скачивания торрента НЕ зависит от ограничений при низком ратио, низком аплоаде, требуемом ратио или требуемом аплоаде.


Начать новую тему Ответить на тему
Статистика раздачи
Размер: 4.37 ГБ | Добавлен: 12 янв 2013, 19:07 | Скачали: 0
Сидеров: 1  [0 байт/сек]    Личеров: 0  [0 байт/сек]
Пред. тема | След. тема 

Автор
Сообщение

СообщениеДобавлено: 12 янв 2013, 19:07 

Ответить с цитатой 

О фильме: Граф Дракула для себя и своей любимой дочки построил хорошо укрытый от посторонних глаз отель, куда монстры со всего света приезжают отдохнуть от семейных забот, повседневной суеты и, конечно… людей. Но вездесущие американские туристы проникают и сюда.

Название: Монстры на каникулах
Год выхода: 2012
Жанр: мультфильм, комедия, семейный
Режиссер: Генндий Тартаковский

В ролях: Адам Сэндлер, Энди Сэмберг, Селена Гомес, Кевин Джеймс, Фрэн Дрешер, Стив Бушеми, Молли Шеннон, Дэвид Спейд, Си-Ло, Джон Ловиц

Продолжительность: 01:31:31
Перевод: Профессиональный (Дублированный) [Чистый звук]
Выпущено: США


Формат: mkv
Качество: BDRip [1080p]
Видео: 1920x1040 6639 Кбит/сек, 23,976 кадр/сек, AVC, x264, 1,85:1, 0.139 Бит/[Пиксели*Кадры], 2pass
Аудио: AC-3, 192 Кбит/сек, 2 канала(ов), 48,0 КГц








Формат : Matroska
Версия формата : Version 2
Размер файла : 4,37 Гбайт
Продолжительность : 1 ч. 31 м.
Общий поток : 6832 Кбит/сек
Дата кодирования : UTC 2013-01-12 13:34:12
Программа кодирования : mkvmerge v5.8.0 ('No Sleep / Pillow') built on Sep 2 2012 15:37:04
Библиотека кодирования : libebml v1.2.3 + libmatroska v1.3.0

Видео
Идентификатор : 1
Формат : AVC
Формат/Информация : Advanced Video Codec
Профиль формата : High@L4.0
Параметр CABAC формата : Да
Параметр ReFrames формата : 4 кадра
Идентификатор кодека : V_MPEG4/ISO/AVC
Продолжительность : 1 ч. 31 м.
Битрейт : 6639 Кбит/сек
Ширина : 1920 пикселей
Высота : 1040 пикселей
Соотношение сторон : 1,85:1
Соотношение сторон в оригинале : 1,85:1
Режим частоты кадров : Постоянный
Частота кадров : 23,976 кадра/сек
Цветовое пространство : YUV
Субдискретизация насыщенности : 4:2:0
Битовая глубина : 8 бит
Тип развёртки : Прогрессивная
Бит/(Пиксели*Кадры) : 0.139
Размер потока : 4,16 Гбайт (95%)
Библиотека кодирования : x264 core 129 r2230 1cffe9f
Настройки программы : cabac=1 / ref=3 / deblock=1:0:0 / analyse=0x3:0x113 / me=hex / subme=7 / psy=1 / psy_rd=1.00:0.00 / mixed_ref=1 / me_range=16 / chroma_me=1 / trellis=1 / 8x8dct=1 / cqm=0 / deadzone=21,11 / fast_pskip=1 / chroma_qp_offset=-2 / threads=6 / lookahead_threads=1 / sliced_threads=0 / nr=0 / decimate=1 / interlaced=0 / bluray_compat=0 / constrained_intra=0 / bframes=3 / b_pyramid=2 / b_adapt=1 / b_bias=0 / direct=1 / weightb=1 / open_gop=0 / weightp=2 / keyint=240 / keyint_min=23 / scenecut=40 / intra_refresh=0 / rc_lookahead=40 / rc=2pass / mbtree=1 / bitrate=6639 / ratetol=1.0 / qcomp=0.60 / qpmin=0 / qpmax=69 / qpstep=4 / cplxblur=20.0 / qblur=0.5 / ip_ratio=1.40 / aq=1:1.00
Язык : English
Default : Да
Forced : Нет

Аудио
Идентификатор : 2
Формат : AC-3
Формат/Информация : Audio Coding 3
Расширение режима : CM (complete main)
Параметр Endianness формата : Big
Идентификатор кодека : A_AC3
Продолжительность : 1 ч. 31 м.
Вид битрейта : Постоянный
Битрейт : 192 Кбит/сек
Каналы : 2 канала
Расположение каналов : Front: L R
Частота : 48,0 КГц
Битовая глубина : 16 бит
Метод сжатия : С потерями
Размер потока : 126 Мбайт (3%)
Default : Да
Forced : Нет



загрузка...
Правила, инструкции, FAQ!!!
Торрент  Добавлен [12 янв 2013, 19:07] Скачать торрент Магнет ссылка
Скачать торрент
[ Размер 11.59 КБ / Просмотров 93 ]

Статус
Проверен 
 
Размер  4.37 ГБ
Приватный: Нет (DHT включён)
.torrent скачан  0
Как залить торрент? | Как скачать Torrent? | Ошибка в торренте? Качайте магнет  


     Отправить личное сообщение
   
Страница 1 из 1
Показать сообщения за:  Поле сортировки  
Начать новую тему Ответить на тему

   Похожие торренты   Автор   Ответы   Просмотры   Последнее сообщение 
В этой теме нет новых непрочитанных сообщений. Закрыто правообладателем Монстры на каникулах 2 / Hotel Transylvania 2 (2015) BDRip 1080p | iTunes Данный торрент является блокированным, причина: Закрыто правообладателем

в форуме Зарубежные мультфильмы (HD Video), Размер: 7.13 ГБ, Здоровье: 100%

Гость

0
646|109

475
1530

27 дек 2015, 21:48

Гость Перейти к последнему сообщению

В этой теме нет новых непрочитанных сообщений. Скачать торрент Проверен Монстры на каникулах в 3Д / Hotel Transylvania 3D (Генндий Тартаковский / Genndy Tartakovsky) [2012, Мультфильм, Комедия, Семейный, BDrip, 1080p] OverUnder / Вертикальная стереопара

в форуме 3D Мультфильмы, Размер: 9.58 ГБ, Здоровье: 100%

Anonymous

0
1|0

60
0

07 сен 2016, 18:00

Anonymous Перейти к последнему сообщению

В этой теме нет новых непрочитанных сообщений. Скачать торрент Проверен Монстры на каникулах 2 в 3Д / Hotel Transylvania 2 3D (Генндий Тартаковский / Genndy Tartakovsky) [2015, Мультфильм, Фэнтези, Комедия, Семейный, BDrip, 1080p] OverUnder / Вертикальная стереопара

в форуме 3D Мультфильмы, Размер: 6.71 ГБ, Здоровье: 100%

Anonymous

0
10|3

93
0

07 сен 2016, 18:09

Anonymous Перейти к последнему сообщению

В этой теме нет новых непрочитанных сообщений. Скачать торрент Проверен Монстры на каникулах в 3Д / Hotel Transylvania 3D (Генндий Тартаковский / Genndy Tartakovsky) [2012, Мультфильм, Комедия, Семейный, HDrip, 1080p] Anaglyph / Анаглиф

в форуме 3D Мультфильмы, Размер: 5.37 ГБ, Здоровье: 100%

Anonymous

0
16|4

94
0

07 сен 2016, 17:58

Anonymous Перейти к последнему сообщению

В этой теме нет новых непрочитанных сообщений. Закрыто правообладателем Монстры на каникулах 2 / Hotel Transylvania 2 (2015) BDRip 720p | iTunes Данный торрент является блокированным, причина: Закрыто правообладателем

в форуме Зарубежные мультфильмы (HD Video), Размер: 3.44 ГБ, Здоровье: 100%

Гость

0
915|119

508
1852

27 дек 2015, 21:41

Гость Перейти к последнему сообщению



Сейчас этот форум просматривают: нет зарегистрированных пользователей и гости: 0


Вы не можете начинать темы
Вы не можете отвечать на сообщения
Вы не можете редактировать свои сообщения
Вы не можете удалять свои сообщения
Вы не можете добавлять вложения

Перейти:  
Ресурс не предоставляет электронные версии произведений, а занимается лишь коллекционированием и каталогизацией ссылок, присылаемых и публикуемых на форуме нашими читателями. Если вы являетесь правообладателем какого-либо представленного материала и не желаете чтобы ссылка на него находилась в нашем каталоге, свяжитесь с нами и мы незамедлительно удалим её. Файлы для обмена на трекере предоставлены пользователями сайта, и администрация не несёт ответственности за их содержание. Просьба не заливать файлы, защищенные авторскими правами, а также файлы нелегального содержания!
cron