На всех торрентах на трекере установлена скидка на скачивание в размере 100 процентов(а).
 Возможность скачивания торрента НЕ зависит от ограничений при низком ратио, низком аплоаде, требуемом ратио или требуемом аплоаде.


Начать новую тему Ответить на тему
Статистика раздачи
Размер: 1.69 ГБ | Добавлен: 09 ноя 2013, 23:01 | Скачали: 1
Сидеров: 10  [0 байт/сек]    Личеров: 5  [0 байт/сек]
Пред. тема | След. тема 

Автор
Сообщение

СообщениеДобавлено: 09 ноя 2013, 23:01 

Ответить с цитатой 

Михаил Задорнов. Реформа НЕОбразования (2013.11.09) SATRip

Режиссер / Телекомпания: РЕН
Русское название: Михаил Задорнов
Год выпуска: 2013
Жанр: Юмористический концерт, сатира

Описание:
В новом проекте Михаил Задорнов в присущей ему манере анализирует образование молодежи в нашей стране.

Режиссёр: Михаил Задорнов

Продолжительность: ~ 02:27:53

Видеокодек: DivX
Битрейт видео: ~1500 kb/s
Размер кадра: 704 x 528
Качество видео: SATRip
Аудиокодек: MP3, 2ch.
Битрейт аудио: 128 kb/s
Формат : AVI
Формат/Информация : Audio Video Interleave
Размер файла : 1,69 Гбайт
Продолжительность : 2 ч. 27 м.
Общий поток : 1638 Кбит/сек
Программа кодирования : VirtualDubMod 1.5.10.2 (build 2540/release)
Библиотека кодирования : VirtualDub build 29808/release

Видео
Идентификатор : 0
Формат : MPEG-4 Visual
Параметр BVOP формата : Нет
Параметр QPel формата : Нет
Параметр GMC формата : Без точки перехода
Параметр матрицы формата : Default (H.263)
Идентификатор кодека : DX50
Идентификатор кодека/Подсказка : DivX 5
Продолжительность : 2 ч. 27 м.
Битрейт : 1500 Кбит/сек
Ширина : 704 пикселя
Высота : 528 пикселей
Соотношение сторон : 4:3
Частота кадров : 25,000 кадров/сек
Цветовое пространство : YUV
Субдискретизация насыщенности : 4:2:0
Битовая глубина : 8 бит
Тип развёртки : Прогрессивная
Метод сжатия : С потерями
Бит/(Пиксели*Кадры) : 0.161
Размер потока : 1,55 Гбайт (92%)
Библиотека кодирования : DivX 6.8.5 (UTC 2009-08-20)

Аудио
Идентификатор : 1
Формат : MPEG Audio
Версия формата : Version 1
Профиль формата : Layer 3
Режим : Joint stereo
Идентификатор кодека : 55
Идентификатор кодека/Подсказка : MP3
Продолжительность : 2 ч. 27 м.
Вид битрейта : Постоянный
Битрейт : 128 Кбит/сек
Каналы : 2 канала
Частота : 48,0 КГц
Метод сжатия : С потерями
Размер потока : 135 Мбайт (8%)
Выравнивание : Соединение по промежуткам
Продолжительность промежутка : 40 мс. (1,00 видеокадр)
Время предзагрузки промежутка : 504 мс.
Библиотека кодирования : LAME3.90.3UUU / аHХ
Скриншоты:
Правила, инструкции, FAQ!!!
Торрент  Добавлен [09 ноя 2013, 23:01] Скачать торрент Магнет ссылка
Скачать торрент
[ Размер 17.73 КБ / Просмотров 47 ]

Статус  
 
Размер  1.69 ГБ
Приватный: Нет (DHT включён)
.torrent скачан  1
Как залить торрент? | Как скачать Torrent? | Ошибка в торренте? Качайте магнет  
загрузка...


     Отправить личное сообщение
   
Страница 1 из 1
Показать сообщения за:  Поле сортировки  
Начать новую тему Ответить на тему

   Похожие торренты   Автор   Ответы   Просмотры   Последнее сообщение 
В этой теме нет новых непрочитанных сообщений. Скачать торрент Проверен Михаил Задорнов | Реформа НЕОбразования (2013) [MP3]

в форуме Сатира, юмор, Размер: 135.4 МБ, Здоровье: 100%

Гость

0
13|4

97
2

24 сен 2015, 20:27

Гость Перейти к последнему сообщению

В этой теме нет новых непрочитанных сообщений. Скачать торрент Михаил Задорнов. Задорнов больше, чем Задорнов (2014.01.01) SATRip

в форуме Юмор|Приколы, Размер: 983.8 МБ, Здоровье: 100%

Anonymous

0
463|16

668
14

01 янв 2014, 20:44

Anonymous Перейти к последнему сообщению

В этой теме нет новых непрочитанных сообщений. Скачать торрент Михаил Задорнов. Русский для коекакеров (2013.10.26) SATRip

в форуме Юмор|Приколы, Размер: 1.96 ГБ, Здоровье: 100%

Anonymous

0
13|8

366
4

26 окт 2013, 21:03

Anonymous Перейти к последнему сообщению

В этой теме нет новых непрочитанных сообщений. Скачать торрент Михаил Задорнов - Энциклопедия глупости [эфир от 02.11] (2013) SATRip

в форуме Юмор|Приколы, Размер: 1.55 ГБ, Здоровье: 100%

Anonymous

0
17|1

354
5

02 ноя 2013, 18:31

Anonymous Перейти к последнему сообщению

В этой теме нет новых непрочитанных сообщений. Скачать торрент Проверен Михаил Задорнов. Поколение памперсов (2014.09.20) SATRip

в форуме Юмор|Приколы, Размер: 1.06 ГБ, Здоровье: 100%

Anonymous

0
602|25

650
26

20 сен 2014, 17:15

Anonymous Перейти к последнему сообщению



Сейчас этот форум просматривают: нет зарегистрированных пользователей и гости: 0


Вы не можете начинать темы
Вы не можете отвечать на сообщения
Вы не можете редактировать свои сообщения
Вы не можете удалять свои сообщения
Вы не можете добавлять вложения

Перейти:  
Ресурс не предоставляет электронные версии произведений, а занимается лишь коллекционированием и каталогизацией ссылок, присылаемых и публикуемых на форуме нашими читателями. Если вы являетесь правообладателем какого-либо представленного материала и не желаете чтобы ссылка на него находилась в нашем каталоге, свяжитесь с нами и мы незамедлительно удалим её. Файлы для обмена на трекере предоставлены пользователями сайта, и администрация не несёт ответственности за их содержание. Просьба не заливать файлы, защищенные авторскими правами, а также файлы нелегального содержания!
cron