На всех торрентах на трекере установлена скидка на скачивание в размере 100 процентов(а).
 Возможность скачивания торрента НЕ зависит от ограничений при низком ратио, низком аплоаде, требуемом ратио или требуемом аплоаде.


Начать новую тему Ответить на тему
Статистика раздачи
Размер: 5.76 ГБ | Добавлен: 13 янв 2014, 11:26 | Скачали: 1
Сидеров: 1  [0 байт/сек]    Личеров: 0  [0 байт/сек]
Пред. тема | След. тема 

Автор
Сообщение

СообщениеДобавлено: 13 янв 2014, 11:26 

Ответить с цитатой 

Название: Metallica: Сквозь невозможное
Оригинальное название: Metallica: Through the Never
Год выхода: 2013
Жанр: мюзикл, музыка, приключения
Режиссер: Нимрод Антал

В ролях: Дэйн ДеХаан, Джеймс Хетфилд, Ларс Ульрих, Кирк Хеммет, Роберт Трухильо, Кайл Томсон,
Тоби Харгрейв, МакКензи Грэй, Питер Брайант, Хротгар Мэтьюз и др.

О фильме:
Участник технической команды группы Metallica получает задание — привезти сумку, содержимое которой необходимо группе для выступления.
Сопровождая таинственную сумку, он попадает в невероятные передряги!
Картина представляет собой смесь игрового фильма и концерта.



Страна: США
Продолжительность: 01:32:44
Перевод: Оригинал (на немногочисленные
диалоги перевод отсутствует)
Качество: MKV, BDRip 720p | Сэмпл: Скачать
Видео: V_MPEG4/AVC, 1280x534 (2.40:1), ~ 5246 Kbps, 23.976 fps
Звук: Аудио 1: English AC3 5.1, 48 kHz, 448 kbps, 16-bit
Аудио 2: English DTS 5.1, ~ 1509 kbps, 48 kHz, 24-bit
Аудио 3: English DTS 2.0, ~ 1509 kbps, 48 kHz, 24-bit



General
Unique ID : 225550918422104550779853121946948612935
(0xA9AF86DAE0D66AA7BFD2612C07023347)
Complete name : Metallica.Through.The.Never.2013.720p.mkv
Format : Matroska
Format version : Version 2
File size : 5.76 GiB
Duration : 1h 32mn
Overall bit rate : 8 889 Kbps
Movie name : Metallica.Through.The.Never.2013.720p
Encoded date : UTC 2014-01-13 05:55:52
Writing application : mkvmerge v5.5.0 ('Healer') built on Apr 9 2012 13:24:38
Writing library : libebml v1.2.3 + libmatroska v1.3.0

Video
ID : 1
Format : AVC
Format/Info : Advanced Video Codec
Format profile : High@L4.1
Format settings, CABAC : Yes
Format settings, ReFrames : 5 frames
Muxing mode : Header stripping
Codec ID : V_MPEG4/ISO/AVC
Duration : 1h 32mn
Bit rate : 5 246 Kbps
Width : 1 280 pixels
Height : 534 pixels
Display aspect ratio : 2.40:1
Frame rate mode : Constant
Frame rate : 23.976 fps
Color space : YUV
Chroma subsampling : 4:2:0
Bit depth : 8 bits
Scan type : Progressive
Bits/(Pixel*Frame) : 0.320
Stream size : 3.40 GiB (59%)
Title : Metallica.Through.The.Never.2013.720p
Language : English
Default : Yes
Forced : No

Audio #1
ID : 2
Format : AC-3
Format/Info : Audio Coding 3
Mode extension : CM (complete main)
Format settings, Endianness : Big
Muxing mode : Header stripping
Codec ID : A_AC3
Duration : 1h 32mn
Bit rate mode : Constant
Bit rate : 448 Kbps
Channel(s) : 6 channels
Channel positions : Front: L C R, Side: L R, LFE
Sampling rate : 48.0 KHz
Bit depth : 16 bits
Compression mode : Lossy
Stream size : 297 MiB (5%)
Title : AC3 5.1 V_ATAKy
Language : English
Default : Yes
Forced : No

Audio #2
ID : 3
Format : DTS
Format/Info : Digital Theater Systems
Mode : 16
Format settings, Endianness : Big
Muxing mode : Header stripping
Codec ID : A_DTS
Duration : 1h 32mn
Bit rate mode : Constant
Bit rate : 1 509 Kbps
Channel(s) : 6 channels
Channel positions : Front: L C R, Side: L R, LFE
Sampling rate : 48.0 KHz
Bit depth : 24 bits
Compression mode : Lossy
Stream size : 1 001 MiB (17%)
Title : DTS 5.1 Ch
Language : English
Default : No
Forced : No

Audio #3
ID : 4
Format : DTS
Format/Info : Digital Theater Systems
Mode : 16
Format settings, Endianness : Big
Muxing mode : Header stripping
Codec ID : A_DTS
Duration : 1h 32mn
Bit rate mode : Constant
Bit rate : 1 509 Kbps
Channel(s) : 2 channels
Channel positions : Front: L R
Sampling rate : 48.0 KHz
Bit depth : 24 bits
Compression mode : Lossy
Stream size : 1 001 MiB (17%)
Title : DTS 2.0 Ch
Language : English
Default : No
Forced : No

Menu
00:00:00.000 : en:00:00:00.000
00:03:48.228 : en:00:03:48.228
00:05:17.317 : en:00:05:17.317
00:10:56.155 : en:00:10:56.155
00:15:01.359 : en:00:15:01.359
00:19:34.965 : en:00:19:34.965
00:25:41.498 : en:00:25:41.498
00:34:43.957 : en:00:34:43.957
00:39:51.931 : en:00:39:51.931
00:41:25.274 : en:00:41:25.274
00:47:09.076 : en:00:47:09.076
00:55:25.697 : en:00:55:25.697
01:03:46.239 : en:01:03:46.239
01:07:02.060 : en:01:07:02.060
01:12:45.486 : en:01:12:45.486
01:19:27.429 : en:01:19:27.429
01:24:26.937 : en:01:24:26.937
Правила, инструкции, FAQ!!!
Торрент  Добавлен [13 янв 2014, 11:26] Скачать торрент Магнет ссылка
Скачать торрент
[ Размер 29.22 КБ / Просмотров 41 ]

Статус  
 
Размер  5.76 ГБ
Приватный: Нет (DHT включён)
.torrent скачан  1
Как залить торрент? | Как скачать Torrent? | Ошибка в торренте? Качайте магнет  
загрузка...


     Отправить личное сообщение
   
Страница 1 из 1
Показать сообщения за:  Поле сортировки  
Начать новую тему Ответить на тему

   Похожие торренты   Автор   Ответы   Просмотры   Последнее сообщение 
В этой теме нет новых непрочитанных сообщений. Скачать торрент Проверен Metallica: Сквозь невозможное / Metallica: Through the Never (Нимрод Антал / Nimrod Antal) [2013, США, Thrash Metal, BDRip 720p]

в форуме Концерты (HD-Video), Размер: 6.92 ГБ, Здоровье: 100%

Anonymous

0
82|19

155
11

03 май 2015, 22:14

Anonymous Перейти к последнему сообщению

В этой теме нет новых непрочитанных сообщений. Скачать торрент Metallica: Сквозь невозможное / Metallica: Through the Never (2013) BDRip 1080p | 3D-Video

в форуме Концерты (HD-Video), Размер: 12.53 ГБ, Здоровье: 100%

Anonymous

0
2|2

152
3

13 янв 2014, 21:05

Anonymous Перейти к последнему сообщению

В этой теме нет новых непрочитанных сообщений. Скачать торрент Проверен Metallica: Сквозь невозможное / Metallica Through the Never [2013, Thrash Metal, Blu-ray]

в форуме Концерты (HD-Video), Размер: 44.46 ГБ, Здоровье: 100%

Anonymous

0
21|7

94
0

23 окт 2016, 19:02

Anonymous Перейти к последнему сообщению

В этой теме нет новых непрочитанных сообщений. Скачать торрент Metallica: Сквозь невозможное / Metallica: Through the Never (2013) WEBRip

в форуме 720p | 1080p, Размер: 1.4 ГБ, Здоровье: 0%

Anonymous

0
0|0

54
0

21 дек 2013, 22:01

Anonymous Перейти к последнему сообщению

В этой теме нет новых непрочитанных сообщений. Скачать торрент Проверен Metallica: Fan Can Six [2010, Thrash Metal, BDRip] (720p)

в форуме Концерты (HD-Video), Размер: 7.96 ГБ, Здоровье: 25%

Anonymous

0
7|27

27
3

23 окт 2016, 16:12

Anonymous Перейти к последнему сообщению



Сейчас этот форум просматривают: Bing [Bot] и гости: 0


Вы не можете начинать темы
Вы не можете отвечать на сообщения
Вы не можете редактировать свои сообщения
Вы не можете удалять свои сообщения
Вы не можете добавлять вложения

Перейти:  
Ресурс не предоставляет электронные версии произведений, а занимается лишь коллекционированием и каталогизацией ссылок, присылаемых и публикуемых на форуме нашими читателями. Если вы являетесь правообладателем какого-либо представленного материала и не желаете чтобы ссылка на него находилась в нашем каталоге, свяжитесь с нами и мы незамедлительно удалим её. Файлы для обмена на трекере предоставлены пользователями сайта, и администрация не несёт ответственности за их содержание. Просьба не заливать файлы, защищенные авторскими правами, а также файлы нелегального содержания!
cron