На всех торрентах на трекере установлена скидка на скачивание в размере 100 процентов(а).
 Возможность скачивания торрента НЕ зависит от ограничений при низком ратио, низком аплоаде, требуемом ратио или требуемом аплоаде.


Начать новую тему Ответить на тему
Статистика раздачи
Размер: 4.15 ГБ | Добавлен: 23 окт 2016, 16:12 | Скачали: 0
Сидеров: 2  [0 байт/сек]    Личеров: 3  [0 байт/сек]
Пред. тема | След. тема 

Автор
Сообщение

СообщениеДобавлено: 23 окт 2016, 16:12 

Metallica - Rock in Rio V - 19.09.2013

Год выпуска: 2013
Жанр: Thrash Metal
Продолжительность: 2:10:01

Треклист
01. Hit the Lights
02. Master of Puppets
03. Holier Than Thou
04. Harvester of Sorrow
05. The Day that Never Comes
06. The Memory Remains
07. Wherever I May Roam
08. Welcome Home (Sanitarium)
09. Sad but True
10. ...And Justice for All
11. One
12. For Whom the Bell Tolls
13. Blackened
14. Nothing Else Matters
15. Enter Sandman
Encore:
16. Creeping Death
17. Battery
18. Seek & Destroy
Качество: HDTVRip 720p
Формат: MKV
Видео кодек: H.264
Аудио кодек: AC3
Видео: 1280x720, High@L4.1, 23,976 fps, H.264 ~ 4000 Kbps, Bit/p 0.181
Аудио1: AC-3, 48.0 KHz, 384 Kbps (6 Ch.),
Аудио2: MPEG Audio, 48.0 KHz, 192 Kbps (2 Ch.)

Rip by E.S.P.
Видео
Идентификатор : 1
Формат : AVC
Формат/Информация : Advanced Video Codec
Профиль формата : High@L4.1
Параметр CABAC формата : Да
Параметр ReFrames формата : 9 кадров
Идентификатор кодека : V_MPEG4/ISO/AVC
Продолжительность : 2 ч. 10 м.
Битрейт : 4000 Кбит/сек
Ширина : 1280 пикселей
Высота : 720 пикселей
Соотношение сторон : 16:9
Частота кадров : 23,976 кадра/сек
Цветовое пространство : YUV
Субдискретизация насыщенности : 4:2:0
Битовая глубина : 8 бит
Тип развёртки : Прогрессивная
Бит/(Пиксели*Кадры) : 0.181
Размер потока : 3,55 Гбайт (85%)
Библиотека кодирования : x264 core 118 r2085 8a62835
Настройки программы : cabac=1 / ref=9 / deblock=1:0:0 / analyse=0x3:0x133 / me=umh / subme=9 / psy=1 / psy_rd=1.00:0.10 / mixed_ref=1 / me_range=16 / chroma_me=1 / trellis=2 / 8x8dct=1 / cqm=0 / deadzone=21,11 / fast_pskip=0 / chroma_qp_offset=-3 / threads=9 / sliced_threads=0 / nr=0 / decimate=1 / interlaced=0 / bluray_compat=0 / constrained_intra=0 / bframes=9 / b_pyramid=2 / b_adapt=2 / b_bias=0 / direct=3 / weightb=1 / open_gop=0 / weightp=2 / keyint=250 / keyint_min=23 / scenecut=40 / intra_refresh=0 / rc_lookahead=50 / rc=2pass / mbtree=1 / bitrate=4000 / ratetol=1.0 / qcomp=0.60 / qpmin=0 / qpmax=69 / qpstep=4 / cplxblur=20.0 / qblur=0.5 / ip_ratio=1.40 / aq=1:1.00

Аудио #1
Идентификатор : 2
Формат : AC-3
Формат/Информация : Audio Coding 3
Расширение режима : CM (complete main)
Идентификатор кодека : A_AC3
Продолжительность : 2 ч. 10 м.
Вид битрейта : Постоянный
Битрейт : 384 Кбит/сек
Каналы : 6 каналов
Расположение каналов : Front: L C R, Side: L R, LFE
Частота : 48,0 КГц
Битовая глубина : 16 бит
Метод сжатия : С потерями
Размер потока : 357 Мбайт (8%)

Аудио #2
Идентификатор : 3
Формат : MPEG Audio
Версия формата : Version 1
Профиль формата : Layer 3
Идентификатор кодека : A_MPEG/L3
Идентификатор кодека/Подсказка : MP3
Продолжительность : 2 ч. 5 м.
Вид битрейта : Переменный
Битрейт : 192 Кбит/сек
Каналы : 2 канала
Частота : 48,0 КГц
Метод сжатия : С потерями
Размер потока : 172 Мбайт (4%)
загрузка...
Правила, инструкции, FAQ!!!
Торрент  Добавлен [23 окт 2016, 16:12] Скачать торрент
Скачать торрент
[ Размер 10.97 КБ / Просмотров 5 ]

Статус
Проверен 
 
Размер  4.15 ГБ
Приватный: Нет (DHT включён)
.torrent скачан  0
Как залить торрент? | Как скачать Torrent? | Как смотреть и слушать онлайн?  


     Отправить личное сообщение
   
Страница 1 из 1
Показать сообщения за:  Поле сортировки  
Начать новую тему Ответить на тему

   Похожие торренты   Автор   Ответы   Просмотры   Последнее сообщение 
В этой теме нет новых непрочитанных сообщений. Скачать торрент Проверен Metallica: Сквозь невозможное / Metallica: Through the Never (Нимрод Антал / Nimrod Antal) [2013, США, Thrash Metal, BDRip 720p]

в форуме Концерты (HD-Video), Размер: 6.92 ГБ, Здоровье: 100%

Anonymous

0
58|12

114
10

03 май 2015, 22:14

Anonymous Перейти к последнему сообщению

В этой теме нет новых непрочитанных сообщений. Скачать торрент Проверен Metallica: Сквозь невозможное / Metallica Through the Never [2013, Thrash Metal, Blu-ray]

в форуме Концерты (HD-Video), Размер: 44.46 ГБ, Здоровье: 100%

Anonymous

0
16|6

30
0

23 окт 2016, 19:02

Anonymous Перейти к последнему сообщению

В этой теме нет новых непрочитанных сообщений. Скачать торрент Проверен Metallica - Live Gothenburg, Sweden (2011) [2011, Thrash Metal, HDTVRip 720p]

в форуме Концерты (HD-Video), Размер: 4.13 ГБ, Здоровье: 50%

Anonymous

0
1|2

2
0

23 окт 2016, 16:06

Anonymous Перейти к последнему сообщению

В этой теме нет новых непрочитанных сообщений. Скачать торрент Проверен Sonisphere Festival 2010 - The Big 4 - Metallica, Slayer, Megadeth, Anthrax [2010, Thrash Metal, HDTVRip 720p]

в форуме Концерты (HD-Video), Размер: 8.01 ГБ, Здоровье: 100%

Anonymous

0
3|1

14
0

23 окт 2016, 15:23

Anonymous Перейти к последнему сообщению

В этой теме нет новых непрочитанных сообщений. Скачать торрент Проверен The Big 4 - Live - Gothenburg, Sweden ( Anthrax, Megadeth, Slayer, Metallica ) 2011-07-03 (PRO) [2011, Thrash Metal, HDTVRip, 720p]

в форуме Концерты (HD-Video), Размер: 9.9 ГБ, Здоровье: 100%

Anonymous

0
6|1

21
2

23 окт 2016, 19:40

Anonymous Перейти к последнему сообщению



Сейчас этот форум просматривают: нет зарегистрированных пользователей и гости: 2


Вы не можете начинать темы
Вы не можете отвечать на сообщения
Вы не можете редактировать свои сообщения
Вы не можете удалять свои сообщения
Вы не можете добавлять вложения

Перейти:  

!ВНИМАНИЕ!
 Ресурс не предоставляет электронные версии произведений, а занимается лишь коллекционированием и каталогизацией ссылок, присылаемых и публикуемых на форуме нашими читателями. Если вы являетесь правообладателем какого-либо представленного материала и не желаете чтобы ссылка на него находилась в нашем каталоге, свяжитесь с нами и мы незамедлительно удалим её. Файлы для обмена на трекере предоставлены пользователями сайта, и администрация не несёт ответственности за их содержание. Просьба не заливать файлы, защищенные авторскими правами, а также файлы нелегального содержания!