На всех торрентах на трекере установлена скидка на скачивание в размере 100 процентов(а).
 Возможность скачивания торрента НЕ зависит от ограничений при низком ратио, низком аплоаде, требуемом ратио или требуемом аплоаде.


Начать новую тему Ответить на тему
Статистика раздачи
Размер: 1022.66 МБ | Добавлен: 23 авг 2016, 20:29 | Скачали: 6
Сидеров: 37  [0 байт/сек]    Личеров: 3  [0 байт/сек]
Пред. тема | След. тема 

Автор
Сообщение

СообщениеДобавлено: 23 авг 2016, 20:29 

Ответить с цитатой 

Megadeth / Countdown to Extinction: Live

Формат записи/Источник записи: [TR24][OF]
Наличие водяных знаков: Нет
Год издания/переиздания диска: 2013
Жанр: Thrash Metal
Издатель(лейбл): Capitol Records
Продолжительность: 1:20:17
Наличие сканов в содержимом раздачи: Только обложка альбома

Треклист:
01. Trust
02. Hangar 18
03. Public Enemy
04. Skin 'O My Teeth
05. Symphony Of Destruction
06. Architecture Of Aggression
07. Foreclosure Of A Dream
08. Sweating Bullets
09. This Was My Life
10. Countdown To Extinction
11. High Speed Dirt
12. Psychotron
13. Captive Honour
14. Ashes In Your Mouth
15. She Wolf
16. Peace Sells
17. Holy Wars...The Punishment Due

Контейнер: FLAC (*.flac)
Тип рипа: tracks

Разрядность: 24/48
Формат: PCM
Количество каналов: 2.0
Код:
foobar2000 1.3.8 / Dynamic Range Meter 1.1.1
log date: 2016-06-11 23:17:04

--------------------------------------------------------------------------------
Analyzed: Megadeth / Countdown To Extinction: Live
--------------------------------------------------------------------------------

DR         Peak         RMS     Duration Track
--------------------------------------------------------------------------------
DR6       -0.10 dB    -6.88 dB      5:11 01-Trust
DR6       -0.10 dB    -7.06 dB      5:15 02-Hangar 18
DR6       -0.10 dB    -7.04 dB      4:43 03-Public Enemy
DR6       -0.10 dB    -7.04 dB      3:46 04-Skin O' My Teeth
DR6       -0.10 dB    -7.27 dB      3:57 05-Symphony Of Destruction
DR6       -0.10 dB    -7.39 dB      3:44 06-Architecture Of Aggression
DR6       -0.10 dB    -7.13 dB      4:16 07-Foreclosure Of A Dream
DR6       -0.10 dB    -7.37 dB      4:56 08-Sweating Bullets
DR6       -0.10 dB    -7.13 dB      3:47 09-This Was My Life
DR6       -0.10 dB    -7.08 dB      4:16 10-Countdown To Extinction
DR6       -0.10 dB    -6.94 dB      4:17 11-High Speed Dirt
DR6       -0.10 dB    -7.07 dB      4:36 12-Psychotron
DR6       -0.10 dB    -6.83 dB      4:15 13-Captive Honour
DR6       -0.10 dB    -7.42 dB      6:23 14-Ashes In Your Mouth
DR6       -0.10 dB    -7.70 dB      3:46 15-She Wolf
DR6       -0.10 dB    -7.03 dB      4:52 16-Peace Sells
DR6        0.00 dB    -7.21 dB      8:20 17-Holy Wars...The Punishment Due
--------------------------------------------------------------------------------

Number of tracks:  17
Official DR value: DR6

Samplerate:        48000 Hz
Channels:          2
Bits per sample:   24
Bitrate:           1792 kbps
Codec:             FLAC
================================================================================
In November and December of 2012, Megadeth blazed hot on the band’s “Countdown to Extinction 20th Anniversary Tour,” ripping through their entire double platinum 1992 album from start to finish before performing other classics from their recorded catalog. Recorded and filmed at Los Angeles’ Fox Theatre last December, Countdown to Extinction: Live is a definitive document of the acclaimed, sold-out tour.

In addition to Megadeth’s blistering performance of the entire Countdown to Extinction album, including the essential “Symphony Of Destruction,” “Foreclosure Of A Dream,” “Sweating Bullets,” and “Skin O’ My Teeth,” Countdown to Extinction: Live features all of the other Megadeth classics the band performed at the epic concert, including “Holy Wars” and “Hangar 18” from 1990’s Rust in Peace, “Peace Sells” from the band’s influential, platinum certified 1986 album, Peace Sells... But Who's Buying?, and “Trust” from 1997’s platinum certified Cryptic Writings.
Источник (релизер): what\mickeydaq\ссылка
загрузка...
Правила, инструкции, FAQ!!!
Торрент  Добавлен [23 авг 2016, 20:29] Скачать торрент Магнет ссылка
Скачать торрент
[ Размер 41.5 КБ / Просмотров 20 ]

Статус
Проверен 
 
Размер  1022.66 МБ
Приватный: Нет (DHT включён)
.torrent скачан  6
Как залить торрент? | Как скачать Torrent? | Ошибка в торренте? Качайте магнет  


     Отправить личное сообщение
   
Страница 1 из 1
Показать сообщения за:  Поле сортировки  
Начать новую тему Ответить на тему

   Похожие торренты   Автор   Ответы   Просмотры   Последнее сообщение 
В этой теме нет новых непрочитанных сообщений. Скачать торрент Проверен Megadeth: Countdown To Extinction - Live [2013, Thrash Metal, BDRip 720p]

в форуме Концерты (HD-Video), Размер: 7.55 ГБ, Здоровье: 100%

Anonymous

0
10|3

47
2

23 окт 2016, 19:09

Anonymous Перейти к последнему сообщению

В этой теме нет новых непрочитанных сообщений. Скачать торрент Проверен Megadeth - Countdown To Extinction - Live 2013 [2013, Thrash Metal, BDRip 1080p]

в форуме Концерты (HD-Video), Размер: 9.03 ГБ, Здоровье: 100%

Anonymous

0
7|3

72
1

23 окт 2016, 18:43

Anonymous Перейти к последнему сообщению

В этой теме нет новых непрочитанных сообщений. Скачать торрент Проверен Megadeth: Countdown To Extinction - Live [2013, Heavy Metal, Blu-ray]

в форуме Концерты (HD-Video), Размер: 19.42 ГБ, Здоровье: 100%

Anonymous

0
11|4

96
3

23 окт 2016, 19:46

Anonymous Перейти к последнему сообщению

В этой теме нет новых непрочитанных сообщений. Скачать торрент Проверен (Thrash Metal) [24/96][LP] Megadeth - Countdown To Extinction - 1992; FLAC (tracks)

в форуме Зарубежный рок (оцифровки), Размер: 1.07 ГБ, Здоровье: 100%

Anonymous

0
14|5

65
1

24 авг 2016, 17:20

Anonymous Перейти к последнему сообщению

В этой теме нет новых непрочитанных сообщений. Скачать торрент Megadeth - Countdown to Extinction Live (2013) BDRip 720p

в форуме Концерты (HD-Video), Размер: 3.28 ГБ, Здоровье: 33%

Anonymous

0
4|12

103
22

23 окт 2013, 17:52

Anonymous Перейти к последнему сообщению



Сейчас этот форум просматривают: нет зарегистрированных пользователей и гости: 1


Вы не можете начинать темы
Вы не можете отвечать на сообщения
Вы не можете редактировать свои сообщения
Вы не можете удалять свои сообщения
Вы не можете добавлять вложения

Перейти:  
Ресурс не предоставляет электронные версии произведений, а занимается лишь коллекционированием и каталогизацией ссылок, присылаемых и публикуемых на форуме нашими читателями. Если вы являетесь правообладателем какого-либо представленного материала и не желаете чтобы ссылка на него находилась в нашем каталоге, свяжитесь с нами и мы незамедлительно удалим её. Файлы для обмена на трекере предоставлены пользователями сайта, и администрация не несёт ответственности за их содержание. Просьба не заливать файлы, защищенные авторскими правами, а также файлы нелегального содержания!
cron