На всех торрентах на трекере установлена скидка на скачивание в размере 100 процентов(а).
 Возможность скачивания торрента НЕ зависит от ограничений при низком ратио, низком аплоаде, требуемом ратио или требуемом аплоаде.


Начать новую тему Ответить на тему
Статистика раздачи
Размер: 3.22 ГБ | Добавлен: 02 фев 2017, 21:38 | Скачали: 0
Сидеров: 69  [0 байт/сек]    Личеров: 22  [0 байт/сек]
Пред. тема | След. тема 

Автор
Сообщение

СообщениеДобавлено: 02 фев 2017, 21:38 

Ответить с цитатой 

Страна: Франция | Onyx Films, Orange Studio, On Entertainment
Жанр: фэнтези, приключения
Продолжительность: 01:46:34
Год выпуска: 2015
Перевод: Профессиональный (дублированный) iTunes
Русские субтитры: есть
Режиссёр: Марк Осборн / Mark Osborne
Роли озвучивали: Рэйчел МакАдамс, Пол Радд, Джеймс Франко, Марион Котийяр, Бенисио Дель Торо, Маккензи Фой, Джефф Бриджес, Венсан Кассель, Пол Джаматти, Рики Джервэйс
Описание
Мир невозможен без фантазии и приключений. По крайней мере в это верит добродушный старик авиатор, по соседству с которым недавно поселилась одна очень педантичная мама со своей прилежной дочкой. Жизнь девочки подчинена строгому учебному плану, в котором время на друзей предусмотрено только следующим летом. Однако этот тщательно выстроенный план трещит по швам, когда в жизнь девочки врывается странный сосед с его невероятными рассказами о Маленьком Принце и далеких звездах. Осталось только починить самолет, и в путь! Так начинается большое путешествие девочки — полное опасностей, волшебства, юмора и настоящей дружбы.
«Маленький принц» (фр. Le Petit Prince) — французский мультфильм, основанный на известной сказке «Маленький принц», которую написал Антуан де Сент-Экзюпери. Режиссёр - Марк Осборн, известный по знаменитому мультфильму «Кунг-фу Панда».
Сэмпл

IMDb: 7.80 (5847)
Релиз:


Качество: BDRip 720p The.Little.Prince.2015.1080p.BluRay.REMUX.AVC.TrueHD.7.1 hd-space
Формат: MKV
Видео: AVC 2570 Kbps 1280 x 544 (2.353) 23.976 fps
Аудио: AC-3 384 Kbps 6 channels, 48.0 KHz iTunes
Аудио 2: AC-3 640 Kbps 6 channels, 48.0 KHz Fre
Аудио 3: AC-3 640 Kbps 6 channels, 48.0 KHz Eng
Субтитры: Rus [Full, Forced], Eng [Full, Forced, SDH], Fre, SRT
x264 [info]: frame I:1405 Avg QP:11.37 size:105675
x264 [info]: frame P:36658 Avg QP:12.81 size: 31048
x264 [info]: frame B:115249 Avg QP:15.81 size: 7238
x264 [info]: consecutive B-frames: 2.5% 4.0% 5.5% 51.1% 7.9% 12.8% 3.3% 9.1% 1.6% 0.7% 1.4%
x264 [info]: mb I I16..4: 11.8% 64.2% 24.1%
x264 [info]: mb P I16..4: 1.1% 8.6% 1.4% P16..4: 26.7% 32.6% 14.9% 4.1% 0.5% skip:10.1%
x264 [info]: mb B I16..4: 0.2% 0.7% 0.1% B16..8: 30.7% 19.3% 3.4% direct: 4.1% skip:41.6% L0:46.3% L1:44.0% BI: 9.7%
x264 [info]: 8x8 transform intra:73.7% inter:42.3%
x264 [info]: direct mvs spatial:99.9% temporal:0.1%
x264 [info]: coded y,uvDC,uvAC intra: 85.0% 83.6% 74.0% inter: 15.0% 14.3% 7.6%
x264 [info]: i16 v,h,dc,p: 35% 17% 10% 38%
x264 [info]: i8 v,h,dc,ddl,ddr,vr,hd,vl,hu: 11% 12% 16% 9% 10% 10% 10% 10% 13%
x264 [info]: i4 v,h,dc,ddl,ddr,vr,hd,vl,hu: 11% 12% 9% 9% 14% 12% 12% 10% 12%
x264 [info]: i8c dc,h,v,p: 45% 27% 15% 13%
x264 [info]: Weighted P-Frames: Y:5.5% UV:3.8%
x264 [info]: ref P L0: 52.5% 6.0% 16.7% 6.7% 5.4% 4.3% 3.7% 2.3% 2.2% 0.2% 0.0%
x264 [info]: ref B L0: 74.8% 11.5% 5.6% 2.9% 2.2% 1.7% 1.0% 0.4%
x264 [info]: ref B L1: 92.8% 7.2%
x264 [info]: kb/s:2653.27

x264 [total]: encoded 153312 frames, 9.94 fps, 2653.27 kb/s, duration 4:16:58.32
Prince [2015].720p.mkv
Format : Matroska
Format version : Version 4 / Version 2
File size : 3.22 GiB
Duration : 1h 46mn
Overall bit rate : 4 320 Kbps
Encoded date : UTC 2016-02-01 07:10:00
Writing application : mkvmerge v6.7.0 ('Back to the Ground') 32bit built on Jan 8 2014 15:03:17
Writing library : libebml v1.3.0 + libmatroska v1.4.1

Video
ID : 1
Format : AVC
Format/Info : Advanced Video Codec
Format profile : High@L4.1
Format settings, CABAC : Yes
Format settings, ReFrames : 9 frames
Codec ID : V_MPEG4/ISO/AVC
Duration : 1h 46mn
Bit rate : 2 570 Kbps
Width : 1 280 pixels
Height : 544 pixels
Display aspect ratio : 2.35:1
Frame rate mode : Constant
Frame rate : 23.976 fps
Color space : YUV
Chroma subsampling : 4:2:0
Bit depth : 8 bits
Scan type : Progressive
Bits/(Pixel*Frame) : 0.154
Stream size : 1.91 GiB (59%)
Title : The Little Prince (2015) [rutracker.org] 720p
Writing library : x264 core 148 r2638kMod 7599210
Encoding settings : cabac=1 / ref=9 / deblock=1:-3:-2 / analyse=0x3:0x133 / me=umh / subme=11 / psy=1 / fade_compensate=0.00 / psy_rd=1.00:0.05 / mixed_ref=1 / me_range=48 / chroma_me=1 / trellis=2 / 8x8dct=1 / cqm=0 / deadzone=21,11 / fast_pskip=0 / chroma_qp_offset=-3 / threads=12 / lookahead_threads=3 / sliced_threads=0 / nr=0 / decimate=1 / interlaced=0 / bluray_compat=0 / constrained_intra=0 / fgo=0 / bframes=10 / b_pyramid=2 / b_adapt=2 / b_bias=0 / direct=3 / weightb=1 / open_gop=0 / weightp=2 / keyint=250 / keyint_min=23 / scenecut=40 / intra_refresh=0 / rc_lookahead=60 / rc=crf / mbtree=0 / crf=16.5000 / qcomp=0.60 / qpmin=0 / qpmax=69 / qpstep=4 / vbv_maxrate=50000 / vbv_bufsize=62500 / crf_max=0.0 / nal_hrd=none / filler=0 / ip_ratio=1.40 / pb_ratio=1.30 / aq=3:0.90
Language : French
Default : Yes
Forced : No

Audio #1
ID : 2
Format : AC-3
Format/Info : Audio Coding 3
Mode extension : CM (complete main)
Format settings, Endianness : Big
Codec ID : A_AC3
Duration : 1h 46mn
Bit rate mode : Constant
Bit rate : 384 Kbps
Channel(s) : 6 channels
Channel positions : Front: L C R, Side: L R, LFE
Sampling rate : 48.0 KHz
Compression mode : Lossy
Stream size : 293 MiB (9%)
Title : DUB [iTunes]
Language : Russian
Default : Yes
Forced : No

Audio #2
ID : 3
Format : AC-3
Format/Info : Audio Coding 3
Mode extension : CM (complete main)
Format settings, Endianness : Big
Codec ID : A_AC3
Duration : 1h 46mn
Bit rate mode : Constant
Bit rate : 640 Kbps
Channel(s) : 6 channels
Channel positions : Front: L C R, Side: L R, LFE
Sampling rate : 48.0 KHz
Compression mode : Lossy
Stream size : 488 MiB (15%)
Title : Original
Language : French
Default : No
Forced : No

Audio #3
ID : 4
Format : AC-3
Format/Info : Audio Coding 3
Mode extension : CM (complete main)
Format settings, Endianness : Big
Codec ID : A_AC3
Duration : 1h 46mn
Bit rate mode : Constant
Bit rate : 640 Kbps
Channel(s) : 6 channels
Channel positions : Front: L C R, Side: L R, LFE
Sampling rate : 48.0 KHz
Compression mode : Lossy
Stream size : 488 MiB (15%)
Title : DUB
Language : English
Default : No
Forced : No

Text #1
ID : 5
Format : UTF-8
Codec ID : S_TEXT/UTF8
Codec ID/Info : UTF-8 Plain Text
Title : Forced
Language : Russian
Default : Yes
Forced : No

Text #2
ID : 6
Format : UTF-8
Codec ID : S_TEXT/UTF8
Codec ID/Info : UTF-8 Plain Text
Title : Full
Language : Russian
Default : No
Forced : No

Text #3
ID : 7
Format : UTF-8
Codec ID : S_TEXT/UTF8
Codec ID/Info : UTF-8 Plain Text
Title : Forced
Language : English
Default : No
Forced : No

Text #4
ID : 8
Format : UTF-8
Codec ID : S_TEXT/UTF8
Codec ID/Info : UTF-8 Plain Text
Title : Full
Language : English
Default : No
Forced : No

Text #5
ID : 9
Format : UTF-8
Codec ID : S_TEXT/UTF8
Codec ID/Info : UTF-8 Plain Text
Title : Full
Language : French
Default : No
Forced : No

Menu
00:00:00.000 : en:Chapter 01
00:06:11.537 : en:Chapter 02
00:16:06.840 : en:Chapter 03
00:22:35.854 : en:Chapter 04
00:32:19.896 : en:Chapter 05
00:38:05.283 : en:Chapter 06
00:43:55.299 : en:Chapter 07
00:49:36.682 : en:Chapter 08
00:57:30.864 : en:Chapter 09
01:08:33.192 : en:Chapter 10
01:14:05.983 : en:Chapter 11
01:20:31.743 : en:Chapter 12
01:27:21.569 : en:Chapter 13
01:39:06.315 : en:Chapter 14[/pre]






загрузка...
Правила, инструкции, FAQ!!!
Торрент  Добавлен [02 фев 2017, 21:38] Скачать торрент Магнет ссылка
Скачать торрент
[ Размер 21.9 КБ / Просмотров 21 ]

Статус
Проверен 
 
Размер  3.22 ГБ
Приватный: Нет (DHT включён)
.torrent скачан  0
Как залить торрент? | Как скачать Torrent? | Ошибка в торренте? Качайте магнет  


     Отправить личное сообщение
   
Страница 1 из 1
Показать сообщения за:  Поле сортировки  
Начать новую тему Ответить на тему

   Похожие торренты   Автор   Ответы   Просмотры   Последнее сообщение 
В этой теме нет новых непрочитанных сообщений. Скачать торрент Проверен Маленький принц в 3Д / Le Petit Prince / The Little Prince 3D (Марк Осборн / Mark Osborne) [2015, Мультфильм, Фэнтези, BDrip-AVC] Half OverUnder / Вертикальная анаморфная стереопара

в форуме 3D Мультфильмы, Размер: 3.99 ГБ, Здоровье: 100%

Anonymous

0
97|18

138
4

07 сен 2016, 18:22

Anonymous Перейти к последнему сообщению

В этой теме нет новых непрочитанных сообщений. Скачать торрент Проверен Маленький принц / The Little Prince (2015) BDRip 1080p от Ash61 | 3D-Video | halfOU | iTunes

в форуме HD-Video в 3D, Размер: 3.8 ГБ, Здоровье: 100%

Гость

0
176|75

1147
46

30 янв 2016, 14:53

Гость Перейти к последнему сообщению

В этой теме нет новых непрочитанных сообщений. Скачать торрент Проверен Маленький принц в 3Д / The Little Prince 3D (Марк Осборн / Mark Osborne) [2015, Мультфильм, фэнтези, приключения, BDremux, 1080p] BD3D

в форуме 3D Мультфильмы, Размер: 32.14 ГБ, Здоровье: 100%

Anonymous

0
3|1

73
0

07 сен 2016, 18:11

Anonymous Перейти к последнему сообщению

В этой теме нет новых непрочитанных сообщений. Скачать торрент Принц Персии: Пески времени / Prince of Persia: The Sands of Time (Майк Ньюэлл / Mike Newell) [2010, США, фэнтези, боевик, мелодрама, приключения, BDRip] Dub CEE

в форуме Фантастика, Фэнтези, Размер: 1.46 ГБ, Здоровье: 100%

Anonymous

0
57|19

99
2

07 фев 2014, 11:41

Anonymous Перейти к последнему сообщению

В этой теме нет новых непрочитанных сообщений. Скачать торрент Гарри Поттер и Принц-полукровка / Harry Potter and the Half-Blood Prince (Дэвид Йэтс / David Yates) [2009 г., фэнтези, приключения, семейный, BDRip] Dub

в форуме Фантастика, Фэнтези, Размер: 1.46 ГБ, Здоровье: 100%

Anonymous

0
85|22

104
2

03 апр 2014, 12:46

Anonymous Перейти к последнему сообщению



Сейчас этот форум просматривают: нет зарегистрированных пользователей и гости: 0


Вы не можете начинать темы
Вы не можете отвечать на сообщения
Вы не можете редактировать свои сообщения
Вы не можете удалять свои сообщения
Вы не можете добавлять вложения

Перейти:  
Ресурс не предоставляет электронные версии произведений, а занимается лишь коллекционированием и каталогизацией ссылок, присылаемых и публикуемых на форуме нашими читателями. Если вы являетесь правообладателем какого-либо представленного материала и не желаете чтобы ссылка на него находилась в нашем каталоге, свяжитесь с нами и мы незамедлительно удалим её. Файлы для обмена на трекере предоставлены пользователями сайта, и администрация не несёт ответственности за их содержание. Просьба не заливать файлы, защищенные авторскими правами, а также файлы нелегального содержания!
cron