На всех торрентах на трекере установлена скидка на скачивание в размере 100 процентов(а).
 Возможность скачивания торрента НЕ зависит от ограничений при низком ратио, низком аплоаде, требуемом ратио или требуемом аплоаде.


Начать новую тему Ответить на тему
Статистика раздачи
Размер: 7.91 ГБ | Добавлен: 22 сен 2013, 00:51 | Скачали: 32
Сидеров: 19  [0 байт/сек]    Личеров: 1  [0 байт/сек]
Пред. тема | След. тема 

Автор
Сообщение

СообщениеДобавлено: 22 сен 2013, 00:51 

Ответить с цитатой 

Оригинальное название: Madonna: The MDNA Tour
Год проведения концертного тура: 2012
Год выхода диска: 2013
Режиссёр: Danny Tull
Жанр: Pop, Dance

О фильме:
The MDNA Tour - девятый концертный тур американской певицы Мадонны в поддержку её двенадцатого студийного альбома MDNA. Сразу
после выпуска MDNA в интервью для Vogue Italia, Мадонна сказала, что хочет двигаться. Было решено создать самый масштабный тур в ее карьере,
включающий в себя около 90 дат. Первоначально планировалось провести концерты в США, после чего отправится в Европу,
но Мадонна изменила свое решение. Мадонна анонсировала на странице своего блога первые 20 дат тура. В их числе находилось две даты для России.
Турне началось 31 мая 2012 года с концерта в Тель-Авиве (Израиль), а завершилось - 22 декабря того же года в Аргентине в городе Кордова.
Всего было дано 88 концертов. Данный фильм является телевизионной версией концертов, прошедших во Франции, Финлядии и США.



Страна: США
Продолжительность: 1:59:46
Перевод: Оригинал (не требуется)
Файл
Качество: MKV, H.264, BDRip 720p (источник: Blu-ray Disc)
Сэмпл: Скачать
Видео: V_MPEG4/AVC, 1280х720 (16:9), ~ 6440 Kbps, 29,976 кадров/сек
Звук: Аудио 1: DTS 5.1, 48 kHz, 1509 kbps, 16 bit
Аудио 2: DTS 2.0, 48 kHz, 1509 kbps, 16-bit
Размер: 7.91 GB

Madonna: The MDNA Tour

Madonna: The MDNA Tour (2013)

01. Virgin Mary (Intro)
02. Girl Gone Wild
03. Revolver
04. Gang Bang
05. Papa Don't Preach
06. Hung Up
07. I Don't Give A
08. Best Friend (Video Interlude)
09. Express Yourself
10. Give Me All Your Luvin'
11. Turn Up The Radio
12. Open Your Heart
13. Masterpiece
14. Justify My Love (Video Interlude)
15. Vogue
16. Erotic Candy Shop
17. Human Nature
18. Like A Virgin Waltz
19. Love Spent
20. Nobody Knows Me (Video Interlude)
21. I'm Addicted
22. I'm A Sinner
23. Like A Prayer
24. Celebration
Общее
Уникальный идентификатор : 181116523000595480750826361604002958444
(0x8841C6048E4318819C91F98BEC964C6C)
Полное имя : Madonna.The.MDNA.Tour.2012.720p.mkv
Формат : Matroska
Версия формата : Version 2
Размер файла : 7,91 Гбайт
Продолжительность : 1 ч. 59 м.
Общий поток : 9458 Кбит/сек
Название фильма : Madonna.The.MDNA.2012_V_ATAKy
Дата кодирования : UTC 2013-09-21 17:12:29
Программа кодирования : mkvmerge v5.6.0 ('Kenya Kane') built on May 27 2012 16:44:04
Библиотека кодирования : libebml v1.2.3 + libmatroska v1.3.0

Видео
Идентификатор : 1
Формат : AVC
Формат/Информация : Advanced Video Codec
Профиль формата : High@L4.1
Параметр CABAC формата : Да
Параметр ReFrames формата : 5 кадров
Идентификатор кодека : V_MPEG4/ISO/AVC
Продолжительность : 1 ч. 59 м.
Битрейт : 6440 Кбит/сек
Ширина : 1280 пикселей
Высота : 720 пикселей
Соотношение сторон : 16:9
Режим частоты кадров : Постоянный
Частота кадров : 23,976 кадра/сек
Цветовое пространство : YUV
Субдискретизация насыщенности : 4:2:0
Битовая глубина : 8 бит
Тип развёртки : Прогрессивная
Бит/(Пиксели*Кадры) : 0.291
Размер потока : 5,23 Гбайт (66%)
Заголовок : Madonna.The.MDNA.2012
Библиотека кодирования : x264 core 128 r2216M 198a7ea
Настройки программы : cabac=1 / ref=6 / deblock=1:0:0 / analyse=0x3:0x133 / me=tesa / subme=10 / psy=1 / psy_rd=1.00:0.20 / mixed_ref=1 / me_range=16 / chroma_me=1 / trellis=2 / 8x8dct=1 / cqm=0 / deadzone=21,11 / fast_pskip=1 / chroma_qp_offset=-3 / threads=4 / lookahead_threads=1 / sliced_threads=0 / nr=0 / decimate=1 / interlaced=0 / bluray_compat=0 / constrained_intra=0 / bframes=6 / b_pyramid=1 / b_adapt=2 / b_bias=0 / direct=3 / weightb=1 / open_gop=0 / weightp=2 / keyint=230 / keyint_min=23 / scenecut=40 / intra_refresh=0 / rc_lookahead=40 / rc=2pass / mbtree=1 / bitrate=6440 / ratetol=1.0 / qcomp=0.60 / qpmin=10 / qpmax=51 / qpstep=4 / cplxblur=20.0 / qblur=0.5 / ip_ratio=1.40 / aq=1:1.00
Язык : English
Default : Да
Forced : Нет

Аудио #1
Идентификатор : 2
Формат : DTS
Формат/Информация : Digital Theater Systems
Режим : 16
Параметр Endianness формата : Big
Идентификатор кодека : A_DTS
Продолжительность : 1 ч. 59 м.
Вид битрейта : Постоянный
Битрейт : 1509 Кбит/сек
Каналы : 6 каналов
Расположение каналов : Front: L C R, Side: L R, LFE
Частота : 48,0 КГц
Битовая глубина : 16 бит
Метод сжатия : С потерями
Размер потока : 1,26 Гбайт (16%)
Заголовок : DTS_5.1_V_ATAKy
Язык : English
Default : Да
Forced : Нет

Аудио #2
Идентификатор : 3
Формат : DTS
Формат/Информация : Digital Theater Systems
Режим : 16
Параметр Endianness формата : Big
Идентификатор кодека : A_DTS
Продолжительность : 1 ч. 59 м.
Вид битрейта : Постоянный
Битрейт : 1509 Кбит/сек
Каналы : 2 канала
Расположение каналов : Front: L R
Частота : 48,0 КГц
Битовая глубина : 16 бит
Метод сжатия : С потерями
Размер потока : 1,26 Гбайт (16%)
Заголовок : DTS_2.0_V_ATAKy
Язык : English
Default : Нет
Forced : Нет

Текст
Идентификатор : 4
Формат : UTF-8
Идентификатор кодека : S_TEXT/UTF8
Идентификатор кодека/Информация : UTF-8 Plain Text
Заголовок : English
Язык : English
Default : Нет
Forced : Нет

Меню
00:00:00.000 : en:00:00:00.000
00:02:52.005 : en:00:02:52.005
00:06:12.414 : en:00:06:12.414
00:10:08.399 : en:00:10:08.399
00:14:04.469 : en:00:14:04.469
00:19:56.529 : en:00:19:56.529
00:21:32.249 : en:00:21:32.249
00:25:29.403 : en:00:25:29.403
00:31:01.651 : en:00:31:01.651
00:34:22.519 : en:00:34:22.519
00:38:24.594 : en:00:38:24.594
00:41:37.245 : en:00:41:37.245
00:42:38.598 : en:00:42:38.598
00:46:46.470 : en:00:46:46.470
00:52:49.541 : en:00:52:49.541
00:55:27.908 : en:00:55:27.908
01:00:01.181 : en:01:00:01.181
01:03:35.020 : en:01:03:35.020
01:07:42.809 : en:01:07:42.809
01:12:07.865 : en:01:12:07.865
01:16:35.466 : en:01:16:35.466
01:21:48.445 : en:01:21:48.445
01:26:35.857 : en:01:26:35.857
01:29:35.412 : en:01:29:35.412
01:34:54.647 : en:01:34:54.647
01:41:39.635 : en:01:41:39.635
01:47:49.505 : en:01:47:49.505
01:53:55.412 : en:01:53:55.412
Правила, инструкции, FAQ!!!
Торрент  Добавлен [22 сен 2013, 00:51] Скачать торрент Магнет ссылка
Скачать торрент
[ Размер 39.98 КБ / Просмотров 30 ]

Статус  
 
Размер  7.91 ГБ
Приватный: Нет (DHT включён)
.torrent скачан  32
Как залить торрент? | Как скачать Torrent? | Ошибка в торренте? Качайте магнет  
загрузка...


     Отправить личное сообщение
   
Страница 1 из 1
Показать сообщения за:  Поле сортировки  
Начать новую тему Ответить на тему

   Похожие торренты   Автор   Ответы   Просмотры   Последнее сообщение 
В этой теме нет новых непрочитанных сообщений. Скачать торрент Madonna: The MDNA Tour (2013) Blu-Ray

в форуме Концерты (HD-Video), Размер: 33.79 ГБ, Здоровье: 100%

Anonymous

0
4|2

128
2

12 окт 2013, 00:18

Anonymous Перейти к последнему сообщению

В этой теме нет новых непрочитанных сообщений. Скачать торрент Madonna - MDNA World Tour 2CD (2013) MP3

в форуме Зарубежная музыка, Размер: 267.29 МБ, Здоровье: 100%

Anonymous

0
22|0

138
1

07 сен 2013, 09:12

Anonymous Перейти к последнему сообщению

В этой теме нет новых непрочитанных сообщений. Скачать торрент Проверен Madonna - MDNA World Tour [2013, Pop, DVD9]

в форуме Концерты (DVD-Video), Размер: 7.55 ГБ, Здоровье: 100%

Anonymous

0
1|1

11
0

12 ноя 2017, 01:08

Anonymous Перейти к последнему сообщению

В этой теме нет новых непрочитанных сообщений. Скачать торрент Madonna - MDNA World Tour (Live) (2013) [MP3|320 кб/с]<Dance, Pop>

в форуме Зарубежная музыка, Размер: 267.29 МБ, Здоровье: 100%

Anonymous

0
1|1

41
0

27 мар 2014, 11:44

Anonymous Перейти к последнему сообщению

В этой теме нет новых непрочитанных сообщений. Скачать торрент Проверен Madonna - MDNA World Tour Live 2CD (2013) [APE|Lossless]<Pop>

в форуме Зарубежная музыка, Размер: 868 МБ, Здоровье: 100%

Anonymous

0
3|2

73
0

12 янв 2015, 22:14

Anonymous Перейти к последнему сообщению



Сейчас этот форум просматривают: нет зарегистрированных пользователей и гости: 0


Вы не можете начинать темы
Вы не можете отвечать на сообщения
Вы не можете редактировать свои сообщения
Вы не можете удалять свои сообщения
Вы не можете добавлять вложения

Перейти:  
Ресурс не предоставляет электронные версии произведений, а занимается лишь коллекционированием и каталогизацией ссылок, присылаемых и публикуемых на форуме нашими читателями. Если вы являетесь правообладателем какого-либо представленного материала и не желаете чтобы ссылка на него находилась в нашем каталоге, свяжитесь с нами и мы незамедлительно удалим её. Файлы для обмена на трекере предоставлены пользователями сайта, и администрация не несёт ответственности за их содержание. Просьба не заливать файлы, защищенные авторскими правами, а также файлы нелегального содержания!
cron