На всех торрентах на трекере установлена скидка на скачивание в размере 100 процентов(а).
 Возможность скачивания торрента НЕ зависит от ограничений при низком ратио, низком аплоаде, требуемом ратио или требуемом аплоаде.


Начать новую тему Ответить на тему
Статистика раздачи
Размер: 8.14 ГБ | Добавлен: 25 фев 2014, 22:39 | Скачали: 0
Сидеров: 0  [0 байт/сек]    Личеров: 0  [0 байт/сек]
Пред. тема | След. тема 

Автор
Сообщение

СообщениеДобавлено: 25 фев 2014, 22:39 

Львы для ягнят / Lions for Lambs

«За что ты готов постоять? За что ты готов бороться? Во имя чего ты живешь? Во имя чего готов умереть?»
Страна: США
Жанр: драма, военный
Год выпуска: 2007
Продолжительность: 01:31:43

Перевод: Профессиональный (дублированный)
Cубтитры: русские, английские
Оригинальная аудиодорожка: английский

Режиссер: Роберт Редфорд / Robert Redford

В ролях: Роберт Редфорд, Мэрил Стрип, Том Круз, Майкл Пенья, Эндрю Гарфилд, Питер Берг, Кевин Данн, Дерек Люк, Ларри Бейтс, Кристофер Мэй

Описание: В одно время в этом мире разворачивается несколько историй: 1) Сенатор с Капитолийского холма защищает свою позицию в отношении кризиса американской кампании в Афганистане от прессинга назойливого журналиста, сделавшего себе имя на этой войне… 2) Профессор, преподающий политологию, старается убедить подающего хорошие надежды студента не бросать учебу, приводя в пример двух бывших студентов, ушедших в армию… 3) Совершенно случайно эти два студента сейчас находятся в Афганистане под огнем талибов…
SAMPLE
Тип релиза: BDRip 1080p (CHD) Контейнер: MKV

Видео: 1920 x 800; x264; 23.976 fps; 10,8 Mbps; L4.1
Аудио#1: AC3, 5.1, 48 Khz, 16 bits, 384 Kbps - Русский
Аудио#2: DTS, 5.1, 48 Khz, 24 bits, 1510 Kbps - Английский
Формат субтитров: softsub (SRT)
MediaInfo
General
Unique ID : 216288883324605049555946522254058899392 (0xA2B7B9449E792346912AEDBB049AC7C0)
Complete name : D:\1080p\Lions.For.Lambs.2007.BDRip.1080p.x264.AC3.DTS.Rus.Eng-CHD.mkv
Format : Matroska
File size : 8.14 GiB
Duration : 1h 31mn
Overall bit rate : 12.7 Mbps
Encoded date : UTC 2011-02-20 15:11:23
Writing application : mkvmerge v4.5.0 ('Speed of Light') сборка от Feb 1 2011 02:10:32
Writing library : libebml v1.2.0 + libmatroska v1.1.0

Video
ID : 1
Format : AVC
Format/Info : Advanced Video Codec
Format profile : High@L4.1
Format settings, CABAC : Yes
Format settings, ReFrames : 5 frames
Codec ID : V_MPEG4/ISO/AVC
Duration : 1h 31mn
Bit rate : 10.8 Mbps
Width : 1 920 pixels
Height : 800 pixels
Display aspect ratio : 2.40:1
Frame rate : 23.976 fps
Color space : YUV
Chroma subsampling : 4:2:0
Bit depth : 8 bits
Scan type : Progressive
Bits/(Pixel*Frame) : 0.294
Stream size : 6.76 GiB (83%)
Title : Lions for Lambs
Writing library : x264 core 112 r1834 a51816a
Encoding settings : cabac=1 / ref=5 / deblock=1:-3:-3 / analyse=0x3:0x113 / me=umh / subme=9 / psy=1 / psy_rd=1.10:0.15 / mixed_ref=1 / me_range=32 / chroma_me=1 / trellis=2 / 8x8dct=1 / cqm=0 / deadzone=21,11 / fast_pskip=0 / chroma_qp_offset=-2 / threads=12 / sliced_threads=0 / nr=0 / decimate=1 / interlaced=0 / constrained_intra=0 / bframes=6 / b_pyramid=2 / b_adapt=2 / b_bias=0 / direct=3 / weightb=1 / open_gop=0 / weightp=2 / keyint=250 / keyint_min=23 / scenecut=40 / intra_refresh=0 / rc_lookahead=40 / rc=2pass / mbtree=0 / bitrate=10834 / ratetol=1.0 / qcomp=0.70 / qpmin=0 / qpmax=51 / qpstep=4 / cplxblur=20.0 / qblur=0.5 / vbv_maxrate=45000 / vbv_bufsize=40000 / ip_ratio=1.40 / pb_ratio=1.30 / aq=1:0.90 / nal_hrd=none
Language : English

Audio #1
ID : 2
Format : AC-3
Format/Info : Audio Coding 3
Mode extension : CM (complete main)
Codec ID : A_AC3
Duration : 1h 31mn
Bit rate mode : Constant
Bit rate : 384 Kbps
Channel(s) : 6 channels
Channel positions : Front: L C R, Side: L R, LFE
Sampling rate : 48.0 KHz
Bit depth : 16 bits
Compression mode : Lossy
Stream size : 252 MiB (3%)
Title : AC3, 6ch @ 384 kbps - DUB
Language : Russian

Audio #2
ID : 3
Format : DTS
Format/Info : Digital Theater Systems
Codec ID : A_DTS
Duration : 1h 31mn
Bit rate mode : Constant
Bit rate : 1 510 Kbps
Channel(s) : 6 channels
Channel positions : Front: L C R, Side: L R, LFE
Sampling rate : 48.0 KHz
Bit depth : 24 bits
Compression mode : Lossy
Delay relative to video : 22ms
Stream size : 991 MiB (12%)
Title : DTS, 6ch @ 1536 kbps
Language : English

Text #1
ID : 4
Format : UTF-8
Codec ID : S_TEXT/UTF8
Codec ID/Info : UTF-8 Plain Text
Language : Russian

Text #2
ID : 5
Format : UTF-8
Codec ID : S_TEXT/UTF8
Codec ID/Info : UTF-8 Plain Text
Title : SDH
Language : English
Скриншоты

загрузка...
Правила, инструкции, FAQ!!!
Торрент  Добавлен [25 фев 2014, 22:39] Скачать торрент
Скачать торрент
[ Размер 41.22 КБ / Просмотров 14 ]

Статус  
 
Размер  8.14 ГБ
Приватный: Нет (DHT включён)
.torrent скачан  0
Как залить торрент? | Как скачать Torrent? | Как смотреть и слушать онлайн?  


     Отправить личное сообщение
   
Страница 1 из 1
Показать сообщения за:  Поле сортировки  
Начать новую тему Ответить на тему

   Похожие торренты   Автор   Ответы   Просмотры   Последнее сообщение 
В этой теме нет новых непрочитанных сообщений. Скачать торрент Проверен Беовульф в 3Д / Beowulf 3D (Роберт Земекис / Robert Zemeckis) [2007, Мультфильм, Фэнтези, Боевик, Драма, Приключения, BDrip, 1080p] OverUnder / Вертикальная стереопара

в форуме HD-Video в 3D, Размер: 9.18 ГБ, Здоровье: 100%

Anonymous

0
14|6

85
0

02 ноя 2014, 09:51

Anonymous Перейти к последнему сообщению

В этой теме нет новых непрочитанных сообщений. Скачать торрент Проверен Молчание ягнят / The Silence of the Lambs (1990) BDRip [576p] iPad

в форуме Фильмы для iPod, iPhone, iPad, Размер: 3.82 ГБ, Здоровье: 0%

Гость

0
0|0

67
0

12 дек 2014, 22:54

Гость Перейти к последнему сообщению

В этой теме нет новых непрочитанных сообщений. Скачать торрент Проверен Баллада о солдате (Григорий Чухрай) [1959, СССР, Военный, драма, мелодрама, BDRip 1080p] Original Rus

в форуме Наше кино (HD Video), Размер: 7.63 ГБ, Здоровье: 100%

Anonymous

0
34|11

28
0

12 апр 2015, 11:06

Anonymous Перейти к последнему сообщению

В этой теме нет новых непрочитанных сообщений. Скачать торрент Проверен [iPad] Изгой / Cast Away (Роберт Земекис / Robert Zemeckis) [2000, драма, приключения, BDRip, 576р] Dub, MVO, Original, sub (rus, eng)

в форуме Фильмы для iPod, iPhone, iPad, Размер: 3.14 ГБ, Здоровье: 100%

Гость

0
38|13

67
1

11 май 2015, 01:30

Гость Перейти к последнему сообщению

В этой теме нет новых непрочитанных сообщений. Скачать торрент Проверен Беовульф в 3Д / Beowulf 3D (Роберт Земекис / Robert Zemeckis) [2007, Мультфильм, Фэнтези, Боевик, Драма, Приключения, BDRemux, 1080p] BD3D

в форуме HD-Video в 3D, Размер: 28.92 ГБ, Здоровье: 100%

Anonymous

0
41|15

104
0

02 ноя 2014, 09:52

Anonymous Перейти к последнему сообщению



Сейчас этот форум просматривают: нет зарегистрированных пользователей и гости: 1


Вы не можете начинать темы
Вы не можете отвечать на сообщения
Вы не можете редактировать свои сообщения
Вы не можете удалять свои сообщения
Вы не можете добавлять вложения

Перейти:  

!ВНИМАНИЕ!
 Ресурс не предоставляет электронные версии произведений, а занимается лишь коллекционированием и каталогизацией ссылок, присылаемых и публикуемых на форуме нашими читателями. Если вы являетесь правообладателем какого-либо представленного материала и не желаете чтобы ссылка на него находилась в нашем каталоге, свяжитесь с нами и мы незамедлительно удалим её. Файлы для обмена на трекере предоставлены пользователями сайта, и администрация не несёт ответственности за их содержание. Просьба не заливать файлы, защищенные авторскими правами, а также файлы нелегального содержания!