На всех торрентах на трекере установлена скидка на скачивание в размере 100 процентов(а).
 Возможность скачивания торрента НЕ зависит от ограничений при низком ратио, низком аплоаде, требуемом ратио или требуемом аплоаде.


Начать новую тему Ответить на тему
Статистика раздачи
Размер: 1.46 ГБ | Добавлен: 11 июн 2018, 09:30 | Скачали: 0
Сидеров: 18  [0 байт/сек]    Личеров: 5  [0 байт/сек]
Пред. тема | След. тема 

Автор
Сообщение

СообщениеДобавлено: 11 июн 2018, 09:30 

Ответить с цитатой 

Лоурайдеры / Lowriders
Страна: США
Жанр: драма, криминал, приключения
Год выпуска: 2016
Продолжительность: 01:38:10
Перевод: Профессиональный (многоголосый закадровый) SDI Media
Субтитры: нет
Оригинальная аудиодорожка: английский
Режиссер: Рикардо де Монреиль / Ricardo de Montreuil
В ролях: Гэбриел Чаварриа
Демиан Бишир
Тео Росси
Тони Револори
Мелисса Бенойст
Ивет Монреаль
Ева Лонгория
Монце Эрнандез
Ноэль Гульеми
Bryan Rubio
Описание: История об уличном художнике-подростке, который разрывается между строгим отцом и преступным братом, когда они сталкиваются на ежегодном автомобильном шоу-состязании лоурайдеров.
Сэмпл: http://multi-up.com/1200329
Качество видео: HDRip
Формат видео: AVI
Видео: MPEG4, XviD, 720x304 (2.35:1), 23.976 fps, 1 468 Kbps (0.280 bit/pixel)
Аудио: AC-3, 48.0 KHz, 2 ch, 192 Kbps, CBR - русский
Аудио 2: AC-3, 48.0 KHz, 6 ch, 448 Kbps, CBR - английский
Код:
Общее
Полное имя                               : M:\Лоурайдеры.avi
Формат                                   : AVI
Формат/Информация                        : Audio Video Interleave
Размер файла                             : 1,46 Гбайт
Продолжительность                        : 1 ч. 38 м.
Общий поток                              : 2122 Кбит/сек
Название фильма                          : Лоурайдеры / Lowriders (2016)
Программа кодирования                    : VirtualDubMod 1.5.10.2 (build 2540/release)
Библиотека кодирования                   : VirtualDubMod build 2540/release
Авторское право                          : miha2154
Видео
Идентификатор                            : 0
Формат                                   : MPEG-4 Visual
Профиль формата                          : Advanced Simple@L5
Параметр BVOP формата                    : 1
Параметр QPel формата                    : Нет
Параметр GMC формата                     : Без точки перехода
Параметр матрицы формата                 : Выборочная
Идентификатор кодека                     : XVID
Идентификатор кодека/Подсказка           : XviD
Продолжительность                        : 1 ч. 38 м.
Битрейт                                  : 1468 Кбит/сек
Ширина                                   : 720 пикселей
Высота                                   : 304 пикселя
Соотношение сторон                       : 2,35:1
Частота кадров                           : 23,976 (24000/1001) кадра/сек
Цветовое пространство                    : YUV
Субдискретизация насыщенности            : 4:2:0
Битовая глубина                          : 8 бит
Тип развёртки                            : Прогрессивная
Метод сжатия                             : С потерями
Бит/(Пиксели*Кадры)                      : 0.280
Размер потока                            : 1,01 Гбайт (69%)
Библиотека кодирования                   : XviD 65
Аудио #1
Идентификатор                            : 1
Формат                                   : AC-3
Формат/Информация                        : Audio Coding 3
Расширение режима                        : CM (complete main)
Параметр Endianness формата              : Big
Идентификатор кодека                     : 2000
Продолжительность                        : 1 ч. 38 м.
Вид битрейта                             : Постоянный
Битрейт                                  : 192 Кбит/сек
Каналы                                   : 2 канала
Расположение каналов                     : Front: L R
Частота                                  : 48,0 КГц
Частота кадров                           : 31,250 кадров/сек (1536 spf)
Метод сжатия                             : С потерями
Размер потока                            : 135 Мбайт (9%)
Выравнивание                             : Разделение по промежуткам
Продолжительность промежутка             : 42  мс. (1,00 видеокадр)
Время предзагрузки промежутка            : 500  мс.
Заголовок                                : Профессиональный (многоголосый, закадровый) ViP Premiere HD
Аудио #2
Идентификатор                            : 2
Формат                                   : AC-3
Формат/Информация                        : Audio Coding 3
Расширение режима                        : CM (complete main)
Параметр Endianness формата              : Big
Идентификатор кодека                     : 2000
Продолжительность                        : 1 ч. 38 м.
Вид битрейта                             : Постоянный
Битрейт                                  : 448 Кбит/сек
Каналы                                   : 6 каналов
Расположение каналов                     : Front: L C R, Side: L R, LFE
Частота                                  : 48,0 КГц
Частота кадров                           : 31,250 кадров/сек (1536 spf)
Метод сжатия                             : С потерями
Размер потока                            : 315 Мбайт (21%)
Выравнивание                             : Разделение по промежуткам
Продолжительность промежутка             : 42  мс. (1,00 видеокадр)
Время предзагрузки промежутка            : 500  мс.
Заголовок                                : Английский

Торрент перезалит 2.06.18 - заменена русская дорожка на более лучшую - за запись спасибо xfiles
Правила, инструкции, FAQ!!!
Торрент  Добавлен [11 июн 2018, 09:30] Скачать торрент Магнет ссылка
Скачать торрент
[ Размер 15.01 КБ / Просмотров 11 ]

Статус
Проверен 
 
Размер  1.46 ГБ
Приватный: Нет (DHT включён)
.torrent скачан  0
Как залить торрент? | Как скачать Torrent? | Ошибка в торренте? Качайте магнет  


     Отправить личное сообщение
   
Страница 1 из 1
Показать сообщения за:  Поле сортировки  
Начать новую тему Ответить на тему

   Похожие торренты   Автор   Ответы   Просмотры   Последнее сообщение 
В этой теме нет новых непрочитанных сообщений. Скачать торрент Проверен Инферно / Inferno (Рон Ховард / Ron Howard) [2016, США, боевик, триллер, драма, криминал, детектив, приключения, HDRip] Dub (BD CEE) + Original + Sub (Rus, ukr, eng)

в форуме Фильмы 2016-2017, Размер: 2.2 ГБ, Здоровье: 100%

Anonymous

0
1|0

6
0

03 фев 2018, 19:43

Anonymous Перейти к последнему сообщению

В этой теме нет новых непрочитанных сообщений. Скачать торрент Проверен Равнины Меркурия / Mercury Plains (Чарльз Бурмейстер / Charles Burmeister) [2016, США, Боевик, драма, приключения, криминал, HDRip] MVO (Paradox & Omskbird Records) + Original Eng + Sub (Rus, Eng)

в форуме Фильмы 2016-2017, Размер: 1.45 ГБ, Здоровье: 100%

Anonymous

0
1|0

3
0

03 фев 2018, 20:16

Anonymous Перейти к последнему сообщению

В этой теме нет новых непрочитанных сообщений. Скачать торрент Проверен Закон ночи / Live by Night (Бен Аффлек / Ben Affleck) [2016, США, драма, криминал, HDRip] Dub + Original + Sub (rus, eng)

в форуме Фильмы 2016-2017, Размер: 2.17 ГБ, Здоровье: 0%

Anonymous

0
0|0

7
0

03 фев 2018, 19:20

Anonymous Перейти к последнему сообщению

В этой теме нет новых непрочитанных сообщений. Скачать торрент Проверен Преступник / Criminal (Ариэль Вромен / Ariel Vromen) [2016, Великобритания, США, триллер, драма, криминал, HDRip] Dub + Original Eng

в форуме Фильмы 2016-2017, Размер: 2.18 ГБ, Здоровье: 0%

Anonymous

0
0|0

4
0

03 фев 2018, 18:29

Anonymous Перейти к последнему сообщению

В этой теме нет новых непрочитанных сообщений. Скачать торрент Проверен Ценный груз / Precious Cargo (Макс Адамс / Max Adams) [2016, Канада, Боевик, триллер, драма, криминал, HDRip-AVC] Dub + Sub Eng + Original Eng

в форуме Фильмы 2016-2017, Размер: 3.27 ГБ, Здоровье: 0%

Anonymous

0
0|0

7
0

03 фев 2018, 19:30

Anonymous Перейти к последнему сообщению



Сейчас этот форум просматривают: нет зарегистрированных пользователей и гости: 0


Вы не можете начинать темы
Вы не можете отвечать на сообщения
Вы не можете редактировать свои сообщения
Вы не можете удалять свои сообщения
Вы не можете добавлять вложения

Перейти:  
Ресурс не предоставляет электронные версии произведений, а занимается лишь коллекционированием и каталогизацией ссылок, присылаемых и публикуемых на форуме нашими читателями. Если вы являетесь правообладателем какого-либо представленного материала и не желаете чтобы ссылка на него находилась в нашем каталоге, свяжитесь с нами и мы незамедлительно удалим её. Файлы для обмена на трекере предоставлены пользователями сайта, и администрация не несёт ответственности за их содержание. Просьба не заливать файлы, защищенные авторскими правами, а также файлы нелегального содержания!
cron